<?xml version="1.0" standalone="no"?>
<!DOCTYPE svg PUBLIC "-//W3C//DTD SVG 1.1//EN" "http://www.w3.org/Graphics/SVG/1.1/DTD/svg11.dtd" >
<svg xmlns="http://www.w3.org/2000/svg">
<metadata>
<json>
<![CDATA[
{
	"fontFamily": "zwicon",
	"majorVersion": 1,
	"minorVersion": 1,
	"fontURL": "http://zwicon.com/",
	"description": "free icon library to download\nFont generated by IcoMoon.",
	"copyright": "",
	"designer": "Made by Zwoelf",
	"license": "Attribution-NoDerivatives 4.0",
	"licenseURL": "https://creativecommons.org/licenses/by-nd/4.0/",
	"designerURL": "http://www.zwoelf.hu/en/",
	"version": "Version 1.1",
	"fontId": "zwicon",
	"psName": "zwicon",
	"subFamily": "Regular",
	"fullName": "zwicon"
}
]]>
</json>
</metadata>
<defs>
<font id="zwicon" horiz-adv-x="1024">
<font-face units-per-em="1024" ascent="819.2" descent="-204.8" />
<missing-glyph horiz-adv-x="1024" />
<glyph unicode="&#x20;" horiz-adv-x="0" d="" />
<glyph unicode="&#xe900;" glyph-name="align-bottom" data-tags="align-bottom" d="M149.333-85.333c-11.782 0-21.333 9.551-21.333 21.333s9.551 21.333 21.333 21.333h725.333c11.782 0 21.333-9.551 21.333-21.333s-9.551-21.333-21.333-21.333h-725.333zM213.333 576c0 58.91 47.756 106.667 106.667 106.667h42.667c58.91 0 106.667-47.756 106.667-106.667v-426.667c0-58.91-47.756-106.667-106.667-106.667h-42.667c-58.91 0-106.667 47.756-106.667 106.667v426.667zM256 576v-426.667c0-35.346 28.654-64 64-64h42.667c35.346 0 64 28.654 64 64v426.667c0 35.346-28.654 64-64 64h-42.667c-35.346 0-64-28.654-64-64zM554.667 448c0 58.91 47.756 106.667 106.667 106.667h42.667c58.91 0 106.667-47.756 106.667-106.667v-298.667c0-58.91-47.756-106.667-106.667-106.667h-42.667c-58.91 0-106.667 47.756-106.667 106.667v298.667zM597.333 448v-298.667c0-35.346 28.654-64 64-64h42.667c35.346 0 64 28.654 64 64v298.667c0 35.346-28.654 64-64 64h-42.667c-35.346 0-64-28.654-64-64z" />
<glyph unicode="&#xe901;" glyph-name="align-h" data-tags="align-h" d="M469.333 298.667h85.333v149.333c0 58.91 47.756 106.667 106.667 106.667h42.667c58.91 0 106.667-47.756 106.667-106.667v-149.333h64c11.782 0 21.333-9.551 21.333-21.333s-9.551-21.333-21.333-21.333h-64v-149.333c0-58.91-47.756-106.667-106.667-106.667h-42.667c-58.91 0-106.667 47.756-106.667 106.667v149.333h-85.333v-234.667c0-58.91-47.756-106.667-106.667-106.667h-42.667c-58.91 0-106.667 47.756-106.667 106.667v234.667h-64c-11.782 0-21.333 9.551-21.333 21.333s9.551 21.333 21.333 21.333h64v234.667c0 58.91 47.756 106.667 106.667 106.667h42.667c58.91 0 106.667-47.756 106.667-106.667v-234.667zM661.333 512c-35.346 0-64-28.654-64-64v-341.333c0-35.346 28.654-64 64-64h42.667c35.346 0 64 28.654 64 64v341.333c0 35.346-28.654 64-64 64h-42.667zM320 597.334c-35.346 0-64-28.654-64-64v-512c0-35.346 28.654-64 64-64h42.667c35.346 0 64 28.654 64 64v512c0 35.346-28.654 64-64 64h-42.667z" />
<glyph unicode="&#xe902;" glyph-name="align-left" data-tags="align-left" d="M853.333 149.334c0 35.346-28.654 64-64 64h-426.667c-35.346 0-64-28.654-64-64v-42.667c0-35.346 28.654-64 64-64h426.667c35.346 0 64 28.654 64 64v42.667zM896 149.334v-42.667c0-58.91-47.756-106.667-106.667-106.667h-426.667c-58.91 0-106.667 47.756-106.667 106.667v42.667c0 58.91 47.756 106.667 106.667 106.667h426.667c58.91 0 106.667-47.756 106.667-106.667zM768 490.667v-42.667c0-58.91-47.756-106.667-106.667-106.667h-298.667c-58.91 0-106.667 47.756-106.667 106.667v42.667c0 58.91 47.756 106.667 106.667 106.667h298.667c58.91 0 106.667-47.756 106.667-106.667zM725.333 490.667c0 35.346-28.654 64-64 64h-298.667c-35.346 0-64-28.654-64-64v-42.667c0-35.346 28.654-64 64-64h298.667c35.346 0 64 28.654 64 64v42.667zM128 661.334c0 11.782 9.551 21.333 21.333 21.333s21.333-9.551 21.333-21.333v-725.333c0-11.782-9.551-21.333-21.333-21.333s-21.333 9.551-21.333 21.333v725.333z" />
<glyph unicode="&#xe903;" glyph-name="align-right" data-tags="align-right" d="M170.667 149.334v-42.667c0-35.346 28.654-64 64-64h426.667c35.346 0 64 28.654 64 64v42.667c0 35.346-28.654 64-64 64h-426.667c-35.346 0-64-28.654-64-64zM128 149.334c0 58.91 47.756 106.667 106.667 106.667h426.667c58.91 0 106.667-47.756 106.667-106.667v-42.667c0-58.91-47.756-106.667-106.667-106.667h-426.667c-58.91 0-106.667 47.756-106.667 106.667v42.667zM256 490.667c0 58.91 47.756 106.667 106.667 106.667h298.667c58.91 0 106.667-47.756 106.667-106.667v-42.667c0-58.91-47.756-106.667-106.667-106.667h-298.667c-58.91 0-106.667 47.756-106.667 106.667v42.667zM298.667 490.667v-42.667c0-35.346 28.654-64 64-64h298.667c35.346 0 64 28.654 64 64v42.667c0 35.346-28.654 64-64 64h-298.667c-35.346 0-64-28.654-64-64zM853.333 661.334c0 11.782 9.551 21.333 21.333 21.333s21.333-9.551 21.333-21.333v-725.333c0-11.782-9.551-21.333-21.333-21.333s-21.333 9.551-21.333 21.333v725.333z" />
<glyph unicode="&#xe904;" glyph-name="align-top" data-tags="align-top" d="M661.333 512c-35.346 0-64-28.654-64-64v-298.667c0-35.346 28.654-64 64-64h42.667c35.346 0 64 28.654 64 64v298.667c0 35.346-28.654 64-64 64h-42.667zM661.333 554.667h42.667c58.91 0 106.667-47.756 106.667-106.667v-298.667c0-58.91-47.756-106.667-106.667-106.667h-42.667c-58.91 0-106.667 47.756-106.667 106.667v298.667c0 58.91 47.756 106.667 106.667 106.667zM320 554.667h42.667c58.91 0 106.667-47.756 106.667-106.667v-426.667c0-58.91-47.756-106.667-106.667-106.667h-42.667c-58.91 0-106.667 47.756-106.667 106.667v426.667c0 58.91 47.756 106.667 106.667 106.667zM320 512c-35.346 0-64-28.654-64-64v-426.667c0-35.346 28.654-64 64-64h42.667c35.346 0 64 28.654 64 64v426.667c0 35.346-28.654 64-64 64h-42.667zM149.333 640c-11.782 0-21.333 9.551-21.333 21.333s9.551 21.333 21.333 21.333h725.333c11.782 0 21.333-9.551 21.333-21.333s-9.551-21.333-21.333-21.333h-725.333z" />
<glyph unicode="&#xe905;" glyph-name="align-v" data-tags="align-v" d="M298.667 448c0-35.346 28.654-64 64-64h341.333c35.346 0 64 28.654 64 64v42.667c0 35.346-28.654 64-64 64h-341.333c-35.346 0-64-28.654-64-64v-42.667zM554.667-0v-64c0-11.782-9.551-21.333-21.333-21.333s-21.333 9.551-21.333 21.333v64h-234.667c-58.91 0-106.667 47.756-106.667 106.667v42.667c0 58.91 47.756 106.667 106.667 106.667h234.667v85.333h-149.333c-58.91 0-106.667 47.756-106.667 106.667v42.667c0 58.91 47.756 106.667 106.667 106.667h149.333v64c0 11.782 9.551 21.333 21.333 21.333s21.333-9.551 21.333-21.333v-64h149.333c58.91 0 106.667-47.756 106.667-106.667v-42.667c0-58.91-47.756-106.667-106.667-106.667h-149.333v-85.333h234.667c58.91 0 106.667-47.756 106.667-106.667v-42.667c0-58.91-47.756-106.667-106.667-106.667h-234.667zM213.333 106.667c0-35.346 28.654-64 64-64h512c35.346 0 64 28.654 64 64v42.667c0 35.346-28.654 64-64 64h-512c-35.346 0-64-28.654-64-64v-42.667z" />
<glyph unicode="&#xe906;" glyph-name="distribute-h" data-tags="distribute-h" d="M426.667 533.334v-469.333c0-35.346 28.654-64 64-64h42.667c35.346 0 64 28.654 64 64v469.333c0 35.346-28.654 64-64 64h-42.667c-35.346 0-64-28.654-64-64zM384 533.334c0 58.91 47.756 106.667 106.667 106.667h42.667c58.91 0 106.667-47.756 106.667-106.667v-469.333c0-58.91-47.756-106.667-106.667-106.667h-42.667c-58.91 0-106.667 47.756-106.667 106.667v469.333zM128 661.334c0 11.782 9.551 21.333 21.333 21.333s21.333-9.551 21.333-21.333v-725.333c0-11.782-9.551-21.333-21.333-21.333s-21.333 9.551-21.333 21.333v725.333zM853.333 661.334c0 11.782 9.551 21.333 21.333 21.333s21.333-9.551 21.333-21.333v-725.333c0-11.782-9.551-21.333-21.333-21.333s-21.333 9.551-21.333 21.333v725.333z" />
<glyph unicode="&#xe907;" glyph-name="distribute-v" data-tags="distribute-v" d="M213.333 320v-42.667c0-35.346 28.654-64 64-64h469.333c35.346 0 64 28.654 64 64v42.667c0 35.346-28.654 64-64 64h-469.333c-35.346 0-64-28.654-64-64zM170.667 320c0 58.91 47.756 106.667 106.667 106.667h469.333c58.91 0 106.667-47.756 106.667-106.667v-42.667c0-58.91-47.756-106.667-106.667-106.667h-469.333c-58.91 0-106.667 47.756-106.667 106.667v42.667zM149.333 640c-11.782 0-21.333 9.551-21.333 21.333s9.551 21.333 21.333 21.333h725.333c11.782 0 21.333-9.551 21.333-21.333s-9.551-21.333-21.333-21.333h-725.333zM149.333-85.333c-11.782 0-21.333 9.551-21.333 21.333s9.551 21.333 21.333 21.333h725.333c11.782 0 21.333-9.551 21.333-21.333s-9.551-21.333-21.333-21.333h-725.333z" />
<glyph unicode="&#xe908;" glyph-name="arrow-bottom-left" data-tags="arrow-bottom-left" d="M286.17 42.667h204.497c11.782 0 21.333-9.551 21.333-21.333s-9.551-21.333-21.333-21.333h-256c-11.782 0-21.333 9.551-21.333 21.333v256c0 11.782 9.551 21.333 21.333 21.333s21.333-9.551 21.333-21.333v-204.497l475.582 475.582c8.331 8.331 21.839 8.331 30.17 0s8.331-21.839 0-30.17l-475.582-475.582z" />
<glyph unicode="&#xe909;" glyph-name="arrow-bottom-right" data-tags="arrow-bottom-right" d="M725.333 115.504v204.497c0 11.782 9.551 21.333 21.333 21.333s21.333-9.551 21.333-21.333v-256c0-11.782-9.551-21.333-21.333-21.333h-256c-11.782 0-21.333 9.551-21.333 21.333s9.551 21.333 21.333 21.333h204.497l-432.915 432.915c-8.331 8.331-8.331 21.839 0 30.17s21.839 8.331 30.17 0l432.915-432.915z" />
<glyph unicode="&#xe90a;" glyph-name="arrow-circle-down" data-tags="arrow-circle-down" d="M554.667 115.504l134.248 134.248c8.331 8.331 21.839 8.331 30.17 0s8.331-21.839 0-30.17l-170.667-170.667c-8.331-8.331-21.839-8.331-30.17 0l-170.667 170.667c-8.331 8.331-8.331 21.839 0 30.17s21.839 8.331 30.17 0l134.248-134.248v375.163c0 11.782 9.551 21.333 21.333 21.333s21.333-9.551 21.333-21.333v-375.163zM938.667 277.334c0-223.859-181.474-405.333-405.333-405.333s-405.333 181.474-405.333 405.333c0 223.859 181.474 405.333 405.333 405.333s405.333-181.474 405.333-405.333zM896 277.334c0 200.295-162.371 362.667-362.667 362.667s-362.667-162.371-362.667-362.667c0-200.295 162.371-362.667 362.667-362.667s362.667 162.371 362.667 362.667z" />
<glyph unicode="&#xe90b;" glyph-name="arrow-circle-left" data-tags="arrow-circle-left" d="M533.333-128c-223.859 0-405.333 181.474-405.333 405.333s181.474 405.333 405.333 405.333c223.859 0 405.333-181.474 405.333-405.333s-181.474-405.333-405.333-405.333zM533.333-85.333c200.295 0 362.667 162.371 362.667 362.667s-162.371 362.667-362.667 362.667c-200.295 0-362.667-162.371-362.667-362.667s162.371-362.667 362.667-362.667zM371.503 298.667h375.163c11.782 0 21.333-9.551 21.333-21.333s-9.551-21.333-21.333-21.333h-375.163l134.248-134.248c8.331-8.331 8.331-21.839 0-30.17s-21.839-8.331-30.17 0l-170.667 170.667c-8.331 8.331-8.331 21.839 0 30.17l170.667 170.667c8.331 8.331 21.839 8.331 30.17 0s8.331-21.839 0-30.17l-134.248-134.248z" />
<glyph unicode="&#xe90c;" glyph-name="arrow-circle-right" data-tags="arrow-circle-right" d="M695.163 298.667l-134.248 134.248c-8.331 8.331-8.331 21.839 0 30.17s21.839 8.331 30.17 0l170.667-170.667c8.331-8.331 8.331-21.839 0-30.17l-170.667-170.667c-8.331-8.331-21.839-8.331-30.17 0s-8.331 21.839 0 30.17l134.248 134.248h-375.163c-11.782 0-21.333 9.551-21.333 21.333s9.551 21.333 21.333 21.333h375.163zM533.333-128c-223.859 0-405.333 181.474-405.333 405.333s181.474 405.333 405.333 405.333c223.859 0 405.333-181.474 405.333-405.333s-181.474-405.333-405.333-405.333zM533.333-85.333c200.295 0 362.667 162.371 362.667 362.667s-162.371 362.667-362.667 362.667c-200.295 0-362.667-162.371-362.667-362.667s162.371-362.667 362.667-362.667z" />
<glyph unicode="&#xe90d;" glyph-name="arrow-circle-up" data-tags="arrow-circle-up" d="M554.667 439.164v-375.163c0-11.782-9.551-21.333-21.333-21.333s-21.333 9.551-21.333 21.333v375.163l-134.248-134.248c-8.331-8.331-21.839-8.331-30.17 0s-8.331 21.839 0 30.17l170.667 170.667c8.331 8.331 21.839 8.331 30.17 0l170.667-170.667c8.331-8.331 8.331-21.839 0-30.17s-21.839-8.331-30.17 0l-134.248 134.248zM938.667 277.334c0-223.859-181.474-405.333-405.333-405.333s-405.333 181.474-405.333 405.333c0 223.859 181.474 405.333 405.333 405.333s405.333-181.474 405.333-405.333zM896 277.334c0 200.295-162.371 362.667-362.667 362.667s-362.667-162.371-362.667-362.667c0-200.295 162.371-362.667 362.667-362.667s362.667 162.371 362.667 362.667z" />
<glyph unicode="&#xe90e;" glyph-name="arrow-down" data-tags="arrow-down" d="M554.667 115.504l134.248 134.248c8.331 8.331 21.839 8.331 30.17 0s8.331-21.839 0-30.17l-170.667-170.667c-8.331-8.331-21.839-8.331-30.17 0l-170.667 170.667c-8.331 8.331-8.331 21.839 0 30.17s21.839 8.331 30.17 0l134.248-134.248v417.83c0 11.782 9.551 21.333 21.333 21.333s21.333-9.551 21.333-21.333v-417.83z" />
<glyph unicode="&#xe90f;" glyph-name="arrow-left" data-tags="arrow-left" d="M371.503 298.667h417.83c11.782 0 21.333-9.551 21.333-21.333s-9.551-21.333-21.333-21.333h-417.83l134.248-134.248c8.331-8.331 8.331-21.839 0-30.17s-21.839-8.331-30.17 0l-170.667 170.667c-8.331 8.331-8.331 21.839 0 30.17l170.667 170.667c8.331 8.331 21.839 8.331 30.17 0s8.331-21.839 0-30.17l-134.248-134.248z" />
<glyph unicode="&#xe910;" glyph-name="arrow-right" data-tags="arrow-right" d="M737.83 256h-417.83c-11.782 0-21.333 9.551-21.333 21.333s9.551 21.333 21.333 21.333h417.83l-134.248 134.248c-8.331 8.331-8.331 21.839 0 30.17s21.839 8.331 30.17 0l170.667-170.667c8.331-8.331 8.331-21.839 0-30.17l-170.667-170.667c-8.331-8.331-21.839-8.331-30.17 0s-8.331 21.839 0 30.17l134.248 134.248z" />
<glyph unicode="&#xe911;" glyph-name="arrow-square-down" data-tags="arrow-square-down" d="M234.656 682.667l597.336 0.296c58.952 0 106.708-47.756 106.708-106.668l-0.033-597.628c0-58.91-47.756-106.667-106.667-106.667h-597.333c-58.91 0-106.667 47.756-106.667 106.667v597.333c0.756 59.614 48.21 106.644 106.656 106.667zM170.667-21.333c0-35.346 28.654-64 64-64h597.333c35.346 0 64 28.654 64 64.001l0.033 597.628c0 35.346-28.654 64-64 64l-597.358-0.296c-35.337-0.014-63.975-28.663-63.975-64 0-0.267-0.011-199.379-0.033-597.333zM554.667 115.504l134.248 134.248c8.331 8.331 21.839 8.331 30.17 0s8.331-21.839 0-30.17l-170.667-170.667c-8.331-8.331-21.839-8.331-30.17 0l-170.667 170.667c-8.331 8.331-8.331 21.839 0 30.17s21.839 8.331 30.17 0l134.248-134.248v375.163c0 11.782 9.551 21.333 21.333 21.333s21.333-9.551 21.333-21.333v-375.163z" />
<glyph unicode="&#xe912;" glyph-name="arrow-square-left" data-tags="arrow-square-left" d="M371.503 256l134.248-134.248c8.331-8.331 8.331-21.839 0-30.17s-21.839-8.331-30.17 0l-170.667 170.667c-8.331 8.331-8.331 21.839 0 30.17l170.667 170.667c8.331 8.331 21.839 8.331 30.17 0s8.331-21.839 0-30.17l-134.248-134.248h375.163c11.782 0 21.333-9.551 21.333-21.333s-9.551-21.333-21.333-21.333h-375.163zM234.667 640c-35.346 0-64-28.654-64-64v-597.333c0-35.346 28.654-64 64.001-64l597.628-0.033c35.346 0 64 28.654 64 64l-0.296 597.358c-0.014 35.337-28.663 63.975-64 63.975-0.267 0-199.379 0.011-597.333 0.033zM938.667 576.011l0.296-597.336c0-58.952-47.756-106.708-106.668-106.708l-597.628 0.033c-58.91 0-106.667 47.756-106.667 106.667v597.333c0 58.91 47.756 106.667 106.667 106.667h597.333c59.614-0.756 106.644-48.21 106.667-106.656z" />
<glyph unicode="&#xe913;" glyph-name="arrow-square-right" data-tags="arrow-square-right" d="M695.163 298.667l-134.248 134.248c-8.331 8.331-8.331 21.839 0 30.17s21.839 8.331 30.17 0l170.667-170.667c8.331-8.331 8.331-21.839 0-30.17l-170.667-170.667c-8.331-8.331-21.839-8.331-30.17 0s-8.331 21.839 0 30.17l134.248 134.248h-375.163c-11.782 0-21.333 9.551-21.333 21.333s9.551 21.333 21.333 21.333h375.163zM832-85.333c35.346 0 64 28.654 64 64v597.333c0 35.346-28.654 64-64.001 64l-597.628 0.033c-35.346 0-64-28.654-64-64l0.296-597.358c0.014-35.337 28.663-63.975 64-63.975 0.267 0 199.379-0.011 597.333-0.033zM128-21.344l-0.296 597.336c0 58.952 47.756 106.708 106.668 106.708l597.628-0.033c58.91 0 106.667-47.756 106.667-106.667v-597.333c0-58.91-47.756-106.667-106.667-106.667h-597.333c-59.614 0.756-106.644 48.21-106.667 106.656z" />
<glyph unicode="&#xe914;" glyph-name="arrow-square-up" data-tags="arrow-square-up" d="M554.667 439.164v-375.163c0-11.782-9.551-21.333-21.333-21.333s-21.333 9.551-21.333 21.333v375.163l-134.248-134.248c-8.331-8.331-21.839-8.331-30.17 0s-8.331 21.839 0 30.17l170.667 170.667c8.331 8.331 21.839 8.331 30.17 0l170.667-170.667c8.331-8.331 8.331-21.839 0-30.17s-21.839-8.331-30.17 0l-134.248 134.248zM896 576c0 35.346-28.654 64-64 64h-597.333c-35.346 0-64-28.654-64-64.001l-0.033-597.628c0-35.346 28.654-64 64-64l597.358 0.296c35.337 0.014 63.975 28.663 63.975 64 0 0.267 0.011 199.379 0.033 597.333zM832.011-128l-597.336-0.296c-58.952 0-106.708 47.756-106.708 106.668l0.033 597.628c0 58.91 47.756 106.667 106.667 106.667h597.333c58.91 0 106.667-47.756 106.667-106.667v-597.333c-0.756-59.614-48.21-106.644-106.656-106.667z" />
<glyph unicode="&#xe915;" glyph-name="arrow-to-top" data-tags="arrow-to-top" d="M554.667 567.164v-460.497c0-11.782-9.551-21.333-21.333-21.333s-21.333 9.551-21.333 21.333v460.497l-134.248-134.248c-8.331-8.331-21.839-8.331-30.17 0s-8.331 21.839 0 30.17l170.667 170.667c8.331 8.331 21.839 8.331 30.17 0l170.667-170.667c8.331-8.331 8.331-21.839 0-30.17s-21.839-8.331-30.17 0l-134.248 134.248zM192-42.666c-11.782 0-21.333 9.551-21.333 21.333s9.551 21.333 21.333 21.333h682.667c11.782 0 21.333-9.551 21.333-21.333s-9.551-21.333-21.333-21.333h-682.667z" />
<glyph unicode="&#xe916;" glyph-name="arrow-top-left" data-tags="arrow-top-left" d="M298.667 481.83v-204.497c0-11.782-9.551-21.333-21.333-21.333s-21.333 9.551-21.333 21.333v256c0 11.782 9.551 21.333 21.333 21.333h256c11.782 0 21.333-9.551 21.333-21.333s-9.551-21.333-21.333-21.333h-204.497l432.915-432.915c8.331-8.331 8.331-21.839 0-30.17s-21.839-8.331-30.17 0l-432.915 432.915z" />
<glyph unicode="&#xe917;" glyph-name="arrow-top-right" data-tags="arrow-top-right" d="M695.163 512h-204.497c-11.782 0-21.333 9.551-21.333 21.333s9.551 21.333 21.333 21.333h256c11.782 0 21.333-9.551 21.333-21.333v-256c0-11.782-9.551-21.333-21.333-21.333s-21.333 9.551-21.333 21.333v204.497l-432.915-432.915c-8.331-8.331-21.839-8.331-30.17 0s-8.331 21.839 0 30.17l432.915 432.915z" />
<glyph unicode="&#xe918;" glyph-name="arrow-up" data-tags="arrow-up" d="M554.667 481.83v-417.83c0-11.782-9.551-21.333-21.333-21.333s-21.333 9.551-21.333 21.333v417.83l-134.248-134.248c-8.331-8.331-21.839-8.331-30.17 0s-8.331 21.839 0 30.17l170.667 170.667c8.331 8.331 21.839 8.331 30.17 0l170.667-170.667c8.331-8.331 8.331-21.839 0-30.17s-21.839-8.331-30.17 0l-134.248 134.248z" />
<glyph unicode="&#xe919;" glyph-name="back" data-tags="back" d="M200.837 128l134.248-134.248c8.331-8.331 8.331-21.839 0-30.17s-21.839-8.331-30.17 0l-170.667 170.667c-8.331 8.331-8.331 21.839 0 30.17l170.667 170.667c8.331 8.331 21.839 8.331 30.17 0s8.331-21.839 0-30.17l-134.248-134.248h588.497c35.346 0 64 28.654 64 64v256c0 35.346-28.654 64-64 64h-640c-11.782 0-21.333 9.551-21.333 21.333s9.551 21.333 21.333 21.333h640c58.91 0 106.667-47.756 106.667-106.667v-256c0-58.91-47.756-106.667-106.667-106.667h-588.497z" />
<glyph unicode="&#xe91a;" glyph-name="chevron-double-down" data-tags="chevron-double-down" d="M647.45 464.198c8.946 7.668 22.413 6.632 30.081-2.314s6.632-22.413-2.314-30.081l-149.333-128c-7.989-6.848-19.778-6.848-27.767 0l-149.333 128c-8.946 7.668-9.982 21.135-2.314 30.081s21.135 9.982 30.081 2.314l135.45-116.1 135.45 116.1zM647.45 293.531c8.946 7.668 22.413 6.632 30.081-2.314s6.632-22.413-2.314-30.081l-149.333-128c-7.989-6.848-19.778-6.848-27.767 0l-149.333 128c-8.946 7.668-9.982 21.135-2.314 30.081s21.135 9.982 30.081 2.314l135.45-116.1 135.45 116.1z" />
<glyph unicode="&#xe91b;" glyph-name="chevron-double-left" data-tags="chevron-double-left" d="M677.531 163.217c7.668-8.946 6.632-22.413-2.314-30.081s-22.413-6.632-30.081 2.314l-128 149.333c-6.848 7.989-6.848 19.778 0 27.767l128 149.333c7.668 8.946 21.135 9.982 30.081 2.314s9.982-21.135 2.314-30.081l-116.1-135.45 116.1-135.45zM506.864 163.217c7.668-8.946 6.632-22.413-2.314-30.081s-22.413-6.632-30.081 2.314l-128 149.333c-6.848 7.989-6.848 19.778 0 27.767l128 149.333c7.668 8.946 21.135 9.982 30.081 2.314s9.982-21.135 2.314-30.081l-116.1-135.45 116.1-135.45z" />
<glyph unicode="&#xe91c;" glyph-name="chevron-double-right" data-tags="chevron-double-right" d="M517.136 434.117c-7.668 8.946-6.632 22.413 2.314 30.081s22.413 6.632 30.081-2.314l128-149.333c6.848-7.989 6.848-19.778 0-27.767l-128-149.333c-7.668-8.946-21.135-9.982-30.081-2.314s-9.982 21.135-2.314 30.081l116.1 135.45-116.1 135.45zM346.469 434.117c-7.668 8.946-6.632 22.413 2.314 30.081s22.413 6.632 30.081-2.314l128-149.333c6.848-7.989 6.848-19.778 0-27.767l-128-149.333c-7.668-8.946-21.135-9.982-30.081-2.314s-9.982 21.135-2.314 30.081l116.1 135.45-116.1 135.45z" />
<glyph unicode="&#xe91d;" glyph-name="chevron-double-up" data-tags="chevron-double-up" d="M376.55 303.803c-8.946-7.668-22.413-6.632-30.081 2.314s-6.632 22.413 2.314 30.081l149.333 128c7.989 6.848 19.778 6.848 27.767 0l149.333-128c8.946-7.668 9.982-21.135 2.314-30.081s-21.135-9.982-30.081-2.314l-135.45 116.1-135.45-116.1zM376.55 133.136c-8.946-7.668-22.413-6.632-30.081 2.314s-6.632 22.413 2.314 30.081l149.333 128c7.989 6.848 19.778 6.848 27.767 0l149.333-128c8.946-7.668 9.982-21.135 2.314-30.081s-21.135-9.982-30.081-2.314l-135.45 116.1-135.45-116.1z" />
<glyph unicode="&#xe91e;" glyph-name="chevron-down" data-tags="chevron-down" d="M647.45 378.864c8.946 7.668 22.413 6.632 30.081-2.314s6.632-22.413-2.314-30.081l-149.333-128c-7.989-6.848-19.778-6.848-27.767 0l-149.333 128c-8.946 7.668-9.982 21.135-2.314 30.081s21.135 9.982 30.081 2.314l135.45-116.1 135.45 116.1z" />
<glyph unicode="&#xe91f;" glyph-name="chevron-left" data-tags="chevron-left" d="M592.197 163.217c7.668-8.946 6.632-22.413-2.314-30.081s-22.413-6.632-30.081 2.314l-128 149.333c-6.848 7.989-6.848 19.778 0 27.767l128 149.333c7.668 8.946 21.135 9.982 30.081 2.314s9.982-21.135 2.314-30.081l-116.1-135.45 116.1-135.45z" />
<glyph unicode="&#xe920;" glyph-name="chevron-right" data-tags="chevron-right" d="M547.902 298.667l-116.1 135.45c-7.668 8.946-6.632 22.413 2.314 30.081s22.413 6.632 30.081-2.314l128-149.333c6.848-7.989 6.848-19.778 0-27.767l-128-149.333c-7.668-8.946-21.135-9.982-30.081-2.314s-9.982 21.135-2.314 30.081l116.1 135.45z" />
<glyph unicode="&#xe921;" glyph-name="chevron-up" data-tags="chevron-up" d="M376.55 218.47c-8.946-7.668-22.413-6.632-30.081 2.314s-6.632 22.413 2.314 30.081l149.333 128c7.989 6.848 19.778 6.848 27.767 0l149.333-128c8.946-7.668 9.982-21.135 2.314-30.081s-21.135-9.982-30.081-2.314l-135.45 116.1-135.45-116.1z" />
<glyph unicode="&#xe922;" glyph-name="collapse-alt" data-tags="collapse-alt" d="M353.83 170.667h-204.497c-11.782 0-21.333 9.551-21.333 21.333s9.551 21.333 21.333 21.333h256c11.782 0 21.333-9.551 21.333-21.333v-256c0-11.782-9.551-21.333-21.333-21.333s-21.333 9.551-21.333 21.333v204.497l-219.582-219.582c-8.331-8.331-21.839-8.331-30.17 0s-8.331 21.839 0 30.17l219.582 219.582zM384 456.837v204.497c0 11.782 9.551 21.333 21.333 21.333s21.333-9.551 21.333-21.333v-256c0-11.782-9.551-21.333-21.333-21.333h-256c-11.782 0-21.333 9.551-21.333 21.333s9.551 21.333 21.333 21.333h204.497l-219.582 219.582c-8.331 8.331-8.331 21.839 0 30.17s21.839 8.331 30.17 0l219.582-219.582zM670.17 426.667h204.497c11.782 0 21.333-9.551 21.333-21.333s-9.551-21.333-21.333-21.333h-256c-11.782 0-21.333 9.551-21.333 21.333v256c0 11.782 9.551 21.333 21.333 21.333s21.333-9.551 21.333-21.333v-204.497l219.582 219.582c8.331 8.331 21.839 8.331 30.17 0s8.331-21.839 0-30.17l-219.582-219.582zM670.17 170.667l219.582-219.582c8.331-8.331 8.331-21.839 0-30.17s-21.839-8.331-30.17 0l-219.582 219.582v-205.384c0-11.782-9.551-21.333-21.333-21.333s-21.333 9.551-21.333 21.333v256.887c0 11.782 9.551 21.333 21.333 21.333h256c11.782 0 21.333-9.551 21.333-21.333s-9.551-21.333-21.333-21.333h-204.497z" />
<glyph unicode="&#xe923;" glyph-name="collapse-alt2" data-tags="collapse-alt2" d="M353.83 256h-289.83c-11.782 0-21.333 9.551-21.333 21.333s9.551 21.333 21.333 21.333h289.83l-91.582 91.582c-8.331 8.331-8.331 21.839 0 30.17s21.839 8.331 30.17 0l128-128c8.331-8.331 8.331-21.839 0-30.17l-128-128c-8.331-8.331-21.839-8.331-30.17 0s-8.331 21.839 0 30.17l91.582 91.582zM512 97.83l-91.582-91.582c-8.331-8.331-21.839-8.331-30.17 0s-8.331 21.839 0 30.17l128 128c8.331 8.331 21.839 8.331 30.17 0l128-128c8.331-8.331 8.331-21.839 0-30.17s-21.839-8.331-30.17 0l-91.582 91.582v-247.163c0-11.782-9.551-21.333-21.333-21.333s-21.333 9.551-21.333 21.333v247.163zM712.837 298.667h247.163c11.782 0 21.333-9.551 21.333-21.333s-9.551-21.333-21.333-21.333h-247.163l91.582-91.582c8.331-8.331 8.331-21.839 0-30.17s-21.839-8.331-30.17 0l-128 128c-8.331 8.331-8.331 21.839 0 30.17l128 128c8.331 8.331 21.839 8.331 30.17 0s8.331-21.839 0-30.17l-91.582-91.582zM512 456.837v247.163c0 11.782 9.551 21.333 21.333 21.333s21.333-9.551 21.333-21.333v-247.163l91.582 91.582c8.331 8.331 21.839 8.331 30.17 0s8.331-21.839 0-30.17l-128-128c-8.331-8.331-21.839-8.331-30.17 0l-128 128c-8.331 8.331-8.331 21.839 0 30.17s21.839 8.331 30.17 0l91.582-91.582z" />
<glyph unicode="&#xe924;" glyph-name="collapse-down" data-tags="collapse-down" d="M469.333 158.17v460.497c0 11.782 9.551 21.333 21.333 21.333s21.333-9.551 21.333-21.333v-460.497l134.248 134.248c8.331 8.331 21.839 8.331 30.17 0s8.331-21.839 0-30.17l-170.667-170.667c-8.331-8.331-21.839-8.331-30.17 0l-170.667 170.667c-8.331 8.331-8.331 21.839 0 30.17s21.839 8.331 30.17 0l134.248-134.248zM192-42.666c-11.782 0-21.333 9.551-21.333 21.333s9.551 21.333 21.333 21.333h597.333c11.782 0 21.333-9.551 21.333-21.333s-9.551-21.333-21.333-21.333h-597.333z" />
<glyph unicode="&#xe925;" glyph-name="collapse-left" data-tags="collapse-left" d="M371.503 298.667h460.497c11.782 0 21.333-9.551 21.333-21.333s-9.551-21.333-21.333-21.333h-460.497l134.248-134.248c8.331-8.331 8.331-21.839 0-30.17s-21.839-8.331-30.17 0l-170.667 170.667c-8.331 8.331-8.331 21.839 0 30.17l170.667 170.667c8.331 8.331 21.839 8.331 30.17 0s8.331-21.839 0-30.17l-134.248-134.248zM170.667 576c0 11.782 9.551 21.333 21.333 21.333s21.333-9.551 21.333-21.333v-597.333c0-11.782-9.551-21.333-21.333-21.333s-21.333 9.551-21.333 21.333v597.333z" />
<glyph unicode="&#xe926;" glyph-name="collapse-right" data-tags="collapse-right" d="M652.497 298.667l-134.248 134.248c-8.331 8.331-8.331 21.839 0 30.17s21.839 8.331 30.17 0l170.667-170.667c8.331-8.331 8.331-21.839 0-30.17l-170.667-170.667c-8.331-8.331-21.839-8.331-30.17 0s-8.331 21.839 0 30.17l134.248 134.248h-460.497c-11.782 0-21.333 9.551-21.333 21.333s9.551 21.333 21.333 21.333h460.497zM810.667 576c0 11.782 9.551 21.333 21.333 21.333s21.333-9.551 21.333-21.333v-597.333c0-11.782-9.551-21.333-21.333-21.333s-21.333 9.551-21.333 21.333v597.333z" />
<glyph unicode="&#xe927;" glyph-name="collapse-up" data-tags="collapse-up" d="M554.667 439.164v-460.497c0-11.782-9.551-21.333-21.333-21.333s-21.333 9.551-21.333 21.333v460.497l-134.248-134.248c-8.331-8.331-21.839-8.331-30.17 0s-8.331 21.839 0 30.17l170.667 170.667c8.331 8.331 21.839 8.331 30.17 0l170.667-170.667c8.331-8.331 8.331-21.839 0-30.17s-21.839-8.331-30.17 0l-134.248 134.248zM234.667 597.334c-11.782 0-21.333 9.551-21.333 21.333s9.551 21.333 21.333 21.333h597.333c11.782 0 21.333-9.551 21.333-21.333s-9.551-21.333-21.333-21.333h-597.333z" />
<glyph unicode="&#xe928;" glyph-name="collapse" data-tags="collapse" d="M353.83 170.667h-204.497c-11.782 0-21.333 9.551-21.333 21.333s9.551 21.333 21.333 21.333h256c11.782 0 21.333-9.551 21.333-21.333v-256c0-11.782-9.551-21.333-21.333-21.333s-21.333 9.551-21.333 21.333v204.497l-219.582-219.582c-8.331-8.331-21.839-8.331-30.17 0s-8.331 21.839 0 30.17l219.582 219.582zM670.17 426.667h204.497c11.782 0 21.333-9.551 21.333-21.333s-9.551-21.333-21.333-21.333h-256c-11.782 0-21.333 9.551-21.333 21.333v256c0 11.782 9.551 21.333 21.333 21.333s21.333-9.551 21.333-21.333v-204.497l219.582 219.582c8.331 8.331 21.839 8.331 30.17 0s8.331-21.839 0-30.17l-219.582-219.582z" />
<glyph unicode="&#xe929;" glyph-name="continue" data-tags="continue" d="M823.163 512l-91.582 91.582c-8.331 8.331-8.331 21.839 0 30.17s21.839 8.331 30.17 0l128-128c8.331-8.331 8.331-21.839 0-30.17l-128-128c-8.331-8.331-21.839-8.331-30.17 0s-8.331 21.839 0 30.17l91.582 91.582h-588.497c-35.346 0-64-28.654-64-64v-256c0-35.346 28.654-64 64-64h213.333c11.782 0 21.333-9.551 21.333-21.333s-9.551-21.333-21.333-21.333h-213.333c-58.91 0-106.667 47.756-106.667 106.667v256c0 58.91 47.756 106.667 106.667 106.667h588.497z" />
<glyph unicode="&#xe92a;" glyph-name="expand-alt" data-tags="expand-alt" d="M853.333-12.496v119.163c0 11.782 9.551 21.333 21.333 21.333s21.333-9.551 21.333-21.333v-170.667c0-11.782-9.551-21.333-21.333-21.333h-170.667c-11.782 0-21.333 9.551-21.333 21.333s9.551 21.333 21.333 21.333h119.163l-219.582 219.582c-8.331 8.331-8.331 21.839 0 30.17s21.839 8.331 30.17 0l219.582-219.582zM170.667 609.83v-119.163c0-11.782-9.551-21.333-21.333-21.333s-21.333 9.551-21.333 21.333v170.667c0 11.782 9.551 21.333 21.333 21.333h170.667c11.782 0 21.333-9.551 21.333-21.333s-9.551-21.333-21.333-21.333h-119.163l219.582-219.582c8.331-8.331 8.331-21.839 0-30.17s-21.839-8.331-30.17 0l-219.582 219.582zM200.837-42.666h119.163c11.782 0 21.333-9.551 21.333-21.333s-9.551-21.333-21.333-21.333h-170.667c-11.782 0-21.333 9.551-21.333 21.333v170.667c0 11.782 9.551 21.333 21.333 21.333s21.333-9.551 21.333-21.333v-119.163l219.582 219.582c8.331 8.331 21.839 8.331 30.17 0s8.331-21.839 0-30.17l-219.582-219.582zM823.163 640h-119.163c-11.782 0-21.333 9.551-21.333 21.333s9.551 21.333 21.333 21.333h170.667c11.782 0 21.333-9.551 21.333-21.333v-171.995c0-11.782-9.551-21.333-21.333-21.333s-21.333 9.551-21.333 21.333v120.492l-219.582-219.582c-8.331-8.331-21.839-8.331-30.17 0s-8.331 21.839 0 30.17l219.582 219.582z" />
<glyph unicode="&#xe92b;" glyph-name="expand-alt2" data-tags="expand-alt2" d="M554.667-97.83l91.582 91.582c8.331 8.331 21.839 8.331 30.17 0s8.331-21.839 0-30.17l-128-128c-8.331-8.331-21.839-8.331-30.17 0l-128 128c-8.331 8.331-8.331 21.839 0 30.17s21.839 8.331 30.17 0l91.582-91.582v247.163c0 11.782 9.551 21.333 21.333 21.333s21.333-9.551 21.333-21.333v-247.163zM158.17 256l91.582-91.582c8.331-8.331 8.331-21.839 0-30.17s-21.839-8.331-30.17 0l-128 128c-8.331 8.331-8.331 21.839 0 30.17l128 128c8.331 8.331 21.839 8.331 30.17 0s8.331-21.839 0-30.17l-91.582-91.582h247.163c11.782 0 21.333-9.551 21.333-21.333s-9.551-21.333-21.333-21.333h-247.163zM908.497 298.667l-91.582 91.582c-8.331 8.331-8.331 21.839 0 30.17s21.839 8.331 30.17 0l128-128c8.331-8.331 8.331-21.839 0-30.17l-128-128c-8.331-8.331-21.839-8.331-30.17 0s-8.331 21.839 0 30.17l91.582 91.582h-247.163c-11.782 0-21.333 9.551-21.333 21.333s9.551 21.333 21.333 21.333h247.163zM554.667 652.497v-247.163c0-11.782-9.551-21.333-21.333-21.333s-21.333 9.551-21.333 21.333v247.163l-91.582-91.582c-8.331-8.331-21.839-8.331-30.17 0s-8.331 21.839 0 30.17l128 128c8.331 8.331 21.839 8.331 30.17 0l128-128c8.331-8.331 8.331-21.839 0-30.17s-21.839-8.331-30.17 0l-91.582 91.582z" />
<glyph unicode="&#xe92c;" glyph-name="expand-down" data-tags="expand-down" d="M554.667 30.17l134.248 134.248c8.331 8.331 21.839 8.331 30.17 0s8.331-21.839 0-30.17l-170.667-170.667c-8.331-8.331-21.839-8.331-30.17 0l-170.667 170.667c-8.331 8.331-8.331 21.839 0 30.17s21.839 8.331 30.17 0l134.248-134.248v460.497c0 11.782 9.551 21.333 21.333 21.333s21.333-9.551 21.333-21.333v-460.497zM192 597.334c-11.782 0-21.333 9.551-21.333 21.333s9.551 21.333 21.333 21.333h682.667c11.782 0 21.333-9.551 21.333-21.333s-9.551-21.333-21.333-21.333h-682.667z" />
<glyph unicode="&#xe92d;" glyph-name="expand-h" data-tags="expand-h" d="M737.83 298.667h-451.66l134.248-134.248c8.331-8.331 8.331-21.839 0-30.17s-21.839-8.331-30.17 0l-170.667 170.667c-8.331 8.331-8.331 21.839 0 30.17l170.667 170.667c8.331 8.331 21.839 8.331 30.17 0s8.331-21.839 0-30.17l-134.248-134.248h451.66l-134.248 134.248c-8.331 8.331-8.331 21.839 0 30.17s21.839 8.331 30.17 0l170.667-170.667c8.331-8.331 8.331-21.839 0-30.17l-170.667-170.667c-8.331-8.331-21.839-8.331-30.17 0s-8.331 21.839 0 30.17l134.248 134.248zM853.333 661.334c0 11.782 9.551 21.333 21.333 21.333s21.333-9.551 21.333-21.333v-682.667c0-11.782-9.551-21.333-21.333-21.333s-21.333 9.551-21.333 21.333v682.667zM128 661.334c0 11.782 9.551 21.333 21.333 21.333s21.333-9.551 21.333-21.333v-682.667c0-11.782-9.551-21.333-21.333-21.333s-21.333 9.551-21.333 21.333v682.667z" />
<glyph unicode="&#xe92e;" glyph-name="expand-left" data-tags="expand-left" d="M243.503 298.667l134.248-134.248c8.331-8.331 8.331-21.839 0-30.17s-21.839-8.331-30.17 0l-170.667 170.667c-8.331 8.331-8.331 21.839 0 30.17l170.667 170.667c8.331 8.331 21.839 8.331 30.17 0s8.331-21.839 0-30.17l-134.248-134.248h460.497c11.782 0 21.333-9.551 21.333-21.333s-9.551-21.333-21.333-21.333h-460.497zM810.667 661.334c0 11.782 9.551 21.333 21.333 21.333s21.333-9.551 21.333-21.333v-682.667c0-11.782-9.551-21.333-21.333-21.333s-21.333 9.551-21.333 21.333v682.667z" />
<glyph unicode="&#xe92f;" glyph-name="expand-right" data-tags="expand-right" d="M780.497 298.667h-460.497c-11.782 0-21.333 9.551-21.333 21.333s9.551 21.333 21.333 21.333h460.497l-134.248 134.248c-8.331 8.331-8.331 21.839 0 30.17s21.839 8.331 30.17 0l170.667-170.667c8.331-8.331 8.331-21.839 0-30.17l-170.667-170.667c-8.331-8.331-21.839-8.331-30.17 0s-8.331 21.839 0 30.17l134.248 134.248zM170.667 661.334c0 11.782 9.551 21.333 21.333 21.333s21.333-9.551 21.333-21.333v-682.667c0-11.782-9.551-21.333-21.333-21.333s-21.333 9.551-21.333 21.333v682.667z" />
<glyph unicode="&#xe930;" glyph-name="expand-up" data-tags="expand-up" d="M512 567.164l-134.248-134.248c-8.331-8.331-21.839-8.331-30.17 0s-8.331 21.839 0 30.17l170.667 170.667c8.331 8.331 21.839 8.331 30.17 0l170.667-170.667c8.331-8.331 8.331-21.839 0-30.17s-21.839-8.331-30.17 0l-134.248 134.248v-460.497c0-11.782-9.551-21.333-21.333-21.333s-21.333 9.551-21.333 21.333v460.497zM234.667-42.666c-11.782 0-21.333 9.551-21.333 21.333s9.551 21.333 21.333 21.333h597.333c11.782 0 21.333-9.551 21.333-21.333s-9.551-21.333-21.333-21.333h-597.333z" />
<glyph unicode="&#xe931;" glyph-name="expand-v" data-tags="expand-v" d="M512 524.497l-134.248-134.248c-8.331-8.331-21.839-8.331-30.17 0s-8.331 21.839 0 30.17l170.667 170.667c8.331 8.331 21.839 8.331 30.17 0l170.667-170.667c8.331-8.331 8.331-21.839 0-30.17s-21.839-8.331-30.17 0l-134.248 134.248v-451.66l134.248 134.248c8.331 8.331 21.839 8.331 30.17 0s8.331-21.839 0-30.17l-170.667-170.667c-8.331-8.331-21.839-8.331-30.17 0l-170.667 170.667c-8.331 8.331-8.331 21.839 0 30.17s21.839 8.331 30.17 0l134.248-134.248v451.66zM234.667-85.333c-11.782 0-21.333 9.551-21.333 21.333s9.551 21.333 21.333 21.333h597.333c11.782 0 21.333-9.551 21.333-21.333s-9.551-21.333-21.333-21.333h-597.333zM234.667 640c-11.782 0-21.333 9.551-21.333 21.333s9.551 21.333 21.333 21.333h597.333c11.782 0 21.333-9.551 21.333-21.333s-9.551-21.333-21.333-21.333h-597.333z" />
<glyph unicode="&#xe932;" glyph-name="expand" data-tags="expand" d="M200.837-42.666h119.163c11.782 0 21.333-9.551 21.333-21.333s-9.551-21.333-21.333-21.333h-170.667c-11.782 0-21.333 9.551-21.333 21.333v170.667c0 11.782 9.551 21.333 21.333 21.333s21.333-9.551 21.333-21.333v-119.163l219.582 219.582c8.331 8.331 21.839 8.331 30.17 0s8.331-21.839 0-30.17l-219.582-219.582zM823.163 640h-119.163c-11.782 0-21.333 9.551-21.333 21.333s9.551 21.333 21.333 21.333h170.667c11.782 0 21.333-9.551 21.333-21.333v-171.995c0-11.782-9.551-21.333-21.333-21.333s-21.333 9.551-21.333 21.333v120.492l-219.582-219.582c-8.331-8.331-21.839-8.331-30.17 0s-8.331 21.839 0 30.17l219.582 219.582z" />
<glyph unicode="&#xe933;" glyph-name="loop" data-tags="loop" d="M200.837 42.667l91.582-91.582c8.331-8.331 8.331-21.839 0-30.17s-21.839-8.331-30.17 0l-128 128c-8.331 8.331-8.331 21.839 0 30.17l128 128c8.331 8.331 21.839 8.331 30.17 0s8.331-21.839 0-30.17l-91.582-91.582h588.497c35.346 0 64 28.654 64 64v128c0 11.782 9.551 21.333 21.333 21.333s21.333-9.551 21.333-21.333v-128c0-58.91-47.756-106.667-106.667-106.667h-588.497zM823.163 512l-91.582 91.582c-8.331 8.331-8.331 21.839 0 30.17s21.839 8.331 30.17 0l128-128c8.331-8.331 8.331-21.839 0-30.17l-128-128c-8.331-8.331-21.839-8.331-30.17 0s-8.331 21.839 0 30.17l91.582 91.582h-588.497c-35.346 0-64-28.654-64-64v-128c0-11.782-9.551-21.333-21.333-21.333s-21.333 9.551-21.333 21.333v128c0 58.91 47.756 106.667 106.667 106.667h588.497z" />
<glyph unicode="&#xe934;" glyph-name="prioritize-down" data-tags="prioritize-down" d="M396.497 42.667h-161.83c-58.91 0-106.667 47.756-106.667 106.667v256c0 58.91 47.756 106.667 106.667 106.667h170.667c11.782 0 21.333-9.551 21.333-21.333s-9.551-21.333-21.333-21.333h-170.667c-35.346 0-64-28.654-64-64v-256c0-35.346 28.654-64 64-64h161.83l-91.582 91.582c-8.331 8.331-8.331 21.839 0 30.17s21.839 8.331 30.17 0l128-128c8.331-8.331 8.331-21.839 0-30.17l-128-128c-8.331-8.331-21.839-8.331-30.17 0s-8.331 21.839 0 30.17l91.582 91.582zM576 469.334c-11.782 0-21.333 9.551-21.333 21.333s9.551 21.333 21.333 21.333h298.667c11.782 0 21.333-9.551 21.333-21.333s-9.551-21.333-21.333-21.333h-298.667zM576 256c-11.782 0-21.333 9.551-21.333 21.333s9.551 21.333 21.333 21.333h298.667c11.782 0 21.333-9.551 21.333-21.333s-9.551-21.333-21.333-21.333h-298.667zM576 42.667c-11.782 0-21.333 9.551-21.333 21.333s9.551 21.333 21.333 21.333h298.667c11.782 0 21.333-9.551 21.333-21.333s-9.551-21.333-21.333-21.333h-298.667z" />
<glyph unicode="&#xe935;" glyph-name="prioritize-up" data-tags="prioritize-up" d="M396.497 512l-91.582 91.582c-8.331 8.331-8.331 21.839 0 30.17s21.839 8.331 30.17 0l128-128c8.331-8.331 8.331-21.839 0-30.17l-128-128c-8.331-8.331-21.839-8.331-30.17 0s-8.331 21.839 0 30.17l91.582 91.582h-161.83c-35.346 0-64-28.654-64-64v-256c0-35.346 28.654-64 64-64h213.333c11.782 0 21.333-9.551 21.333-21.333s-9.551-21.333-21.333-21.333h-213.333c-58.91 0-106.667 47.756-106.667 106.667v256c0 58.91 47.756 106.667 106.667 106.667h161.83zM576 469.334c-11.782 0-21.333 9.551-21.333 21.333s9.551 21.333 21.333 21.333h298.667c11.782 0 21.333-9.551 21.333-21.333s-9.551-21.333-21.333-21.333h-298.667zM576 256c-11.782 0-21.333 9.551-21.333 21.333s9.551 21.333 21.333 21.333h298.667c11.782 0 21.333-9.551 21.333-21.333s-9.551-21.333-21.333-21.333h-298.667zM576 42.667c-11.782 0-21.333 9.551-21.333 21.333s9.551 21.333 21.333 21.333h298.667c11.782 0 21.333-9.551 21.333-21.333s-9.551-21.333-21.333-21.333h-298.667z" />
<glyph unicode="&#xe936;" glyph-name="redo" data-tags="redo" d="M810.667 533.334c0 11.782 9.551 21.333 21.333 21.333s21.333-9.551 21.333-21.333v-213.333c0-11.782-9.551-21.333-21.333-21.333h-213.333c-11.782 0-21.333 9.551-21.333 21.333s9.551 21.333 21.333 21.333h192v192zM170.667 63.949c-0.028-11.782-9.602-21.31-21.384-21.282s-21.31 9.602-21.282 21.384c0.127 52.722 0.307 80.262 0.585 85.321 11.143 202.939 179.3 362.628 383.415 362.628h12.075c132.556 0 255.761-68.286 326.016-180.693 6.244-9.991 3.207-23.153-6.784-29.397s-23.153-3.207-29.397 6.784c-62.457 99.932-171.99 160.64-289.834 160.64h-12.075c-181.429 0-330.91-141.953-340.812-322.3-0.212-3.858-0.4-32.453-0.521-83.084z" />
<glyph unicode="&#xe937;" glyph-name="refresh-double" data-tags="refresh-double" d="M725.333 32.182c79.922 63.999 128 161.135 128 266.485 0 180.646-140.768 329.738-320.194 340.69-11.76 0.718-20.712 10.833-19.994 22.594s10.833 20.712 22.594 19.994c201.905-12.325 360.261-180.044 360.261-383.277 0-117.886-53.55-226.677-142.602-298.667h121.269c11.782 0 21.333-9.551 21.333-21.333s-9.551-21.333-21.333-21.333h-170.667c-11.782 0-21.333 9.551-21.333 21.333v170.667c0 11.782 9.551 21.333 21.333 21.333s21.333-9.551 21.333-21.333v-117.151zM298.667 565.152c-79.915-63.992-128-161.128-128-266.485 0-181.222 141.638-330.599 321.742-340.781 11.763-0.665 20.76-10.74 20.095-22.503s-10.74-20.76-22.503-20.095c-202.665 11.457-362 179.499-362 383.38 0 117.893 53.558 226.684 142.602 298.667h-121.268c-11.782 0-21.333 9.551-21.333 21.333s9.551 21.333 21.333 21.333h170.667c11.782 0 21.333-9.551 21.333-21.333v-170.667c0-11.782-9.551-21.333-21.333-21.333s-21.333 9.551-21.333 21.333v117.152z" />
<glyph unicode="&#xe938;" glyph-name="refresh-left" data-tags="refresh-left" d="M213.333 540.066c71.977 89.037 180.767 142.601 298.667 142.601 212.077 0 384-171.923 384-384s-171.923-384-384-384c-203.287 0-371.032 158.436-383.286 360.403-0.714 11.76 8.242 21.873 20.002 22.586s21.873-8.242 22.586-20.002c10.89-179.481 160.005-320.321 340.698-320.321 188.513 0 341.333 152.82 341.333 341.333s-152.82 341.333-341.333 341.333c-105.362 0-202.498-48.091-266.485-128h117.152c11.782 0 21.333-9.551 21.333-21.333s-9.551-21.333-21.333-21.333h-170.667c-11.782 0-21.333 9.551-21.333 21.333v170.667c0 11.782 9.551 21.333 21.333 21.333s21.333-9.551 21.333-21.333v-121.268z" />
<glyph unicode="&#xe939;" glyph-name="refresh-right" data-tags="refresh-right" d="M810.667 540.066v121.268c0 11.782 9.551 21.333 21.333 21.333s21.333-9.551 21.333-21.333v-170.667c0-11.782-9.551-21.333-21.333-21.333h-170.667c-11.782 0-21.333 9.551-21.333 21.333s9.551 21.333 21.333 21.333h117.152c-63.987 79.909-161.123 128-266.485 128-188.513 0-341.333-152.82-341.333-341.333s152.82-341.333 341.333-341.333c180.693 0 329.808 140.84 340.698 320.321 0.714 11.76 10.826 20.716 22.586 20.002s20.716-10.826 20.002-22.586c-12.254-201.967-179.999-360.403-383.286-360.403-212.077 0-384 171.923-384 384s171.923 384 384 384c117.899 0 226.689-53.564 298.667-142.601v0z" />
<glyph unicode="&#xe93a;" glyph-name="restart" data-tags="restart" d="M396.497 469.334h-161.83c-35.346 0-64-28.654-64-64v-256c0-35.346 28.654-64 64-64h554.667c35.346 0 64 28.654 64 64v256c0 35.346-28.654 64-64 64h-170.667c-11.782 0-21.333 9.551-21.333 21.333s9.551 21.333 21.333 21.333h170.667c58.91 0 106.667-47.756 106.667-106.667v-256c0-58.91-47.756-106.667-106.667-106.667h-554.667c-58.91 0-106.667 47.756-106.667 106.667v256c0 58.91 47.756 106.667 106.667 106.667h161.83l-91.582 91.582c-8.331 8.331-8.331 21.839 0 30.17s21.839 8.331 30.17 0l128-128c8.331-8.331 8.331-21.839 0-30.17l-128-128c-8.331-8.331-21.839-8.331-30.17 0s-8.331 21.839 0 30.17l91.582 91.582z" />
<glyph unicode="&#xe93b;" glyph-name="split-h" data-tags="split-h" d="M469.333-12.496v225.83h-320c-11.782 0-21.333 9.551-21.333 21.333s9.551 21.333 21.333 21.333h682.667c11.782 0 21.333-9.551 21.333-21.333s-9.551-21.333-21.333-21.333h-320v-225.83l134.248 134.248c8.331 8.331 21.839 8.331 30.17 0s8.331-21.839 0-30.17l-170.667-170.667c-8.331-8.331-21.839-8.331-30.17 0l-170.667 170.667c-8.331 8.331-8.331 21.839 0 30.17s21.839 8.331 30.17 0l134.248-134.248zM512 609.83v-225.83h320c11.782 0 21.333-9.551 21.333-21.333s-9.551-21.333-21.333-21.333h-682.667c-11.782 0-21.333 9.551-21.333 21.333s9.551 21.333 21.333 21.333h320v225.83l-134.248-134.248c-8.331-8.331-21.839-8.331-30.17 0s-8.331 21.839 0 30.17l170.667 170.667c8.331 8.331 21.839 8.331 30.17 0l170.667-170.667c8.331-8.331 8.331-21.839 0-30.17s-21.839-8.331-30.17 0l-134.248 134.248z" />
<glyph unicode="&#xe93c;" glyph-name="split-v" data-tags="split-v" d="M823.163 298.667h-225.83v-320c0-11.782-9.551-21.333-21.333-21.333s-21.333 9.551-21.333 21.333v682.667c0 11.782 9.551 21.333 21.333 21.333s21.333-9.551 21.333-21.333v-320h225.83l-134.248 134.248c-8.331 8.331-8.331 21.839 0 30.17s21.839 8.331 30.17 0l170.667-170.667c8.331-8.331 8.331-21.839 0-30.17l-170.667-170.667c-8.331-8.331-21.839-8.331-30.17 0s-8.331 21.839 0 30.17l134.248 134.248zM200.837 341.334h225.83v320c0 11.782 9.551 21.333 21.333 21.333s21.333-9.551 21.333-21.333v-682.667c0-11.782-9.551-21.333-21.333-21.333s-21.333 9.551-21.333 21.333v320h-225.83l134.248-134.248c8.331-8.331 8.331-21.839 0-30.17s-21.839-8.331-30.17 0l-170.667 170.667c-8.331 8.331-8.331 21.839 0 30.17l170.667 170.667c8.331 8.331 21.839 8.331 30.17 0s8.331-21.839 0-30.17l-134.248-134.248z" />
<glyph unicode="&#xe93d;" glyph-name="undo" data-tags="undo" d="M167.424 308.694c-6.244-9.991-19.406-13.028-29.397-6.784s-13.028 19.406-6.784 29.397c70.254 112.407 193.46 180.693 326.016 180.693h12.075c204.115 0 372.272-159.689 383.415-362.628 0.278-5.059 0.459-32.599 0.585-85.321 0.028-11.782-9.5-21.356-21.282-21.384s-21.356 9.5-21.384 21.282c-0.121 50.631-0.309 79.227-0.521 83.084-9.902 180.348-159.383 322.3-340.812 322.3h-12.075c-117.845 0-227.377-60.708-289.834-160.64zM362.667 341.334c11.782 0 21.333-9.551 21.333-21.333s-9.551-21.333-21.333-21.333h-213.333c-11.782 0-21.333 9.551-21.333 21.333v213.333c0 11.782 9.551 21.333 21.333 21.333s21.333-9.551 21.333-21.333v-192h192z" />
<glyph unicode="&#xe93e;" glyph-name="cell-border-bottom" data-tags="cell-border-bottom" d="M554.667-0h277.333c11.782 0 21.333-9.551 21.333-21.333s-9.551-21.333-21.333-21.333h-597.333c-11.782 0-21.333 9.551-21.333 21.333s9.551 21.333 21.333 21.333h277.333v21.333c0 11.782 9.551 21.333 21.333 21.333s21.333-9.551 21.333-21.333v-21.333zM554.667 298.667h21.333c11.782 0 21.333-9.551 21.333-21.333s-9.551-21.333-21.333-21.333h-21.333v-21.333c0-11.782-9.551-21.333-21.333-21.333s-21.333 9.551-21.333 21.333v21.333h-21.333c-11.782 0-21.333 9.551-21.333 21.333s9.551 21.333 21.333 21.333h21.333v21.333c0 11.782 9.551 21.333 21.333 21.333s21.333-9.551 21.333-21.333v-21.333zM661.333 256c-11.782 0-21.333 9.551-21.333 21.333s9.551 21.333 21.333 21.333h42.667c11.782 0 21.333-9.551 21.333-21.333s-9.551-21.333-21.333-21.333h-42.667zM789.333 256c-11.782 0-21.333 9.551-21.333 21.333s9.551 21.333 21.333 21.333h42.667c11.782 0 21.333-9.551 21.333-21.333s-9.551-21.333-21.333-21.333h-42.667zM234.667 256c-11.782 0-21.333 9.551-21.333 21.333s9.551 21.333 21.333 21.333h42.667c11.782 0 21.333-9.551 21.333-21.333s-9.551-21.333-21.333-21.333h-42.667zM362.667 256c-11.782 0-21.333 9.551-21.333 21.333s9.551 21.333 21.333 21.333h42.667c11.782 0 21.333-9.551 21.333-21.333s-9.551-21.333-21.333-21.333h-42.667zM512 576c0 11.782 9.551 21.333 21.333 21.333s21.333-9.551 21.333-21.333v-42.667c0-11.782-9.551-21.333-21.333-21.333s-21.333 9.551-21.333 21.333v42.667zM512 448c0 11.782 9.551 21.333 21.333 21.333s21.333-9.551 21.333-21.333v-42.667c0-11.782-9.551-21.333-21.333-21.333s-21.333 9.551-21.333 21.333v42.667zM512 149.334c0 11.782 9.551 21.333 21.333 21.333s21.333-9.551 21.333-21.333v-42.667c0-11.782-9.551-21.333-21.333-21.333s-21.333 9.551-21.333 21.333v42.667zM234.667 682.667c11.782 0 21.333-9.551 21.333-21.333s-9.551-21.333-21.333-21.333c-35.346 0-64-28.654-64-64 0-11.782-9.551-21.333-21.333-21.333s-21.333 9.551-21.333 21.333c0 58.91 47.756 106.667 106.667 106.667zM704 640c-11.782 0-21.333 9.551-21.333 21.333s9.551 21.333 21.333 21.333h42.667c11.782 0 21.333-9.551 21.333-21.333s-9.551-21.333-21.333-21.333h-42.667zM576 640c-11.782 0-21.333 9.551-21.333 21.333s9.551 21.333 21.333 21.333h42.667c11.782 0 21.333-9.551 21.333-21.333s-9.551-21.333-21.333-21.333h-42.667zM448 640c-11.782 0-21.333 9.551-21.333 21.333s9.551 21.333 21.333 21.333h42.667c11.782 0 21.333-9.551 21.333-21.333s-9.551-21.333-21.333-21.333h-42.667zM320 640c-11.782 0-21.333 9.551-21.333 21.333s9.551 21.333 21.333 21.333h42.667c11.782 0 21.333-9.551 21.333-21.333s-9.551-21.333-21.333-21.333h-42.667zM832 640c-11.782 0-21.333 9.551-21.333 21.333s9.551 21.333 21.333 21.333c58.91 0 106.667-47.756 106.667-106.667v-2.626c0-11.782-9.551-21.333-21.333-21.333s-21.333 9.551-21.333 21.333v2.626c0 35.346-28.654 64-64 64zM896 490.667c0 11.782 9.551 21.333 21.333 21.333s21.333-9.551 21.333-21.333v-42.667c0-11.782-9.551-21.333-21.333-21.333s-21.333 9.551-21.333 21.333v42.667zM896 362.667c0 11.782 9.551 21.333 21.333 21.333s21.333-9.551 21.333-21.333v-42.667c0-11.782-9.551-21.333-21.333-21.333s-21.333 9.551-21.333 21.333v42.667zM896 234.667c0 11.782 9.551 21.333 21.333 21.333s21.333-9.551 21.333-21.333v-42.667c0-11.782-9.551-21.333-21.333-21.333s-21.333 9.551-21.333 21.333v42.667zM896 106.667c0 11.782 9.551 21.333 21.333 21.333s21.333-9.551 21.333-21.333v-42.667c0-11.782-9.551-21.333-21.333-21.333s-21.333 9.551-21.333 21.333v42.667zM128 490.667c0 11.782 9.551 21.333 21.333 21.333s21.333-9.551 21.333-21.333v-42.667c0-11.782-9.551-21.333-21.333-21.333s-21.333 9.551-21.333 21.333v42.667zM128 362.667c0 11.782 9.551 21.333 21.333 21.333s21.333-9.551 21.333-21.333v-42.667c0-11.782-9.551-21.333-21.333-21.333s-21.333 9.551-21.333 21.333v42.667zM128 234.667c0 11.782 9.551 21.333 21.333 21.333s21.333-9.551 21.333-21.333v-42.667c0-11.782-9.551-21.333-21.333-21.333s-21.333 9.551-21.333 21.333v42.667zM128 106.667c0 11.782 9.551 21.333 21.333 21.333s21.333-9.551 21.333-21.333v-42.667c0-11.782-9.551-21.333-21.333-21.333s-21.333 9.551-21.333 21.333v42.667zM896-21.333c0 11.782 9.551 21.333 21.333 21.333s21.333-9.551 21.333-21.333c0-58.91-47.756-106.667-106.667-106.667h-597.333c-58.91 0-106.667 47.756-106.667 106.667 0 11.782 9.551 21.333 21.333 21.333s21.333-9.551 21.333-21.333c0-35.346 28.654-64 64-64h597.333c35.346 0 64 28.654 64 64z" />
<glyph unicode="&#xe93f;" glyph-name="cell-border-full" data-tags="cell-border-full" d="M554.667 298.667h21.333c11.782 0 21.333-9.551 21.333-21.333s-9.551-21.333-21.333-21.333h-21.333v-21.333c0-11.782-9.551-21.333-21.333-21.333s-21.333 9.551-21.333 21.333v21.333h-21.333c-11.782 0-21.333 9.551-21.333 21.333s9.551 21.333 21.333 21.333h21.333v21.333c0 11.782 9.551 21.333 21.333 21.333s21.333-9.551 21.333-21.333v-21.333zM128 576c0 58.91 47.756 106.667 106.667 106.667h597.333c58.91 0 106.667-47.756 106.667-106.667v-597.63c0-58.91-47.756-106.667-106.667-106.667h-597.333c-58.91 0-106.667 47.756-106.667 106.667v597.63zM170.667 576v-597.63c0-35.346 28.654-64 64-64h597.333c35.346 0 64 28.654 64 64v597.63c0 35.346-28.654 64-64 64h-597.333c-35.346 0-64-28.654-64-64zM661.333 256c-11.782 0-21.333 9.551-21.333 21.333s9.551 21.333 21.333 21.333h42.667c11.782 0 21.333-9.551 21.333-21.333s-9.551-21.333-21.333-21.333h-42.667zM789.333 256c-11.782 0-21.333 9.551-21.333 21.333s9.551 21.333 21.333 21.333h42.667c11.782 0 21.333-9.551 21.333-21.333s-9.551-21.333-21.333-21.333h-42.667zM234.667 256c-11.782 0-21.333 9.551-21.333 21.333s9.551 21.333 21.333 21.333h42.667c11.782 0 21.333-9.551 21.333-21.333s-9.551-21.333-21.333-21.333h-42.667zM362.667 256c-11.782 0-21.333 9.551-21.333 21.333s9.551 21.333 21.333 21.333h42.667c11.782 0 21.333-9.551 21.333-21.333s-9.551-21.333-21.333-21.333h-42.667zM512 576c0 11.782 9.551 21.333 21.333 21.333s21.333-9.551 21.333-21.333v-42.667c0-11.782-9.551-21.333-21.333-21.333s-21.333 9.551-21.333 21.333v42.667zM512 448c0 11.782 9.551 21.333 21.333 21.333s21.333-9.551 21.333-21.333v-42.667c0-11.782-9.551-21.333-21.333-21.333s-21.333 9.551-21.333 21.333v42.667zM512 21.334c0 11.782 9.551 21.333 21.333 21.333s21.333-9.551 21.333-21.333v-42.667c0-11.782-9.551-21.333-21.333-21.333s-21.333 9.551-21.333 21.333v42.667zM512 149.334c0 11.782 9.551 21.333 21.333 21.333s21.333-9.551 21.333-21.333v-42.667c0-11.782-9.551-21.333-21.333-21.333s-21.333 9.551-21.333 21.333v42.667z" />
<glyph unicode="&#xe940;" glyph-name="cell-border-left" data-tags="cell-border-left" d="M554.667 256v-21.333c0-11.782-9.551-21.333-21.333-21.333s-21.333 9.551-21.333 21.333v21.333h-21.333c-11.782 0-21.333 9.551-21.333 21.333s9.551 21.333 21.333 21.333h21.333v21.333c0 11.782 9.551 21.333 21.333 21.333s21.333-9.551 21.333-21.333v-21.333h21.333c11.782 0 21.333-9.551 21.333-21.333s-9.551-21.333-21.333-21.333h-21.333zM256 298.667h21.333c11.782 0 21.333-9.551 21.333-21.333s-9.551-21.333-21.333-21.333h-21.333v-277.333c0-11.782-9.551-21.333-21.333-21.333s-21.333 9.551-21.333 21.333v597.333c0 11.782 9.551 21.333 21.333 21.333s21.333-9.551 21.333-21.333v-277.333zM938.667 576c0-11.782-9.551-21.333-21.333-21.333s-21.333 9.551-21.333 21.333c0 35.346-28.654 64-64 64-11.782 0-21.333 9.551-21.333 21.333s9.551 21.333 21.333 21.333c58.91 0 106.667-47.756 106.667-106.667zM896-21.333c0 11.782 9.551 21.333 21.333 21.333s21.333-9.551 21.333-21.333c0-58.91-47.756-106.667-106.667-106.667h-2.626c-11.782 0-21.333 9.551-21.333 21.333s9.551 21.333 21.333 21.333h2.626c35.346 0 64 28.654 64 64zM234.667-85.333c11.782 0 21.333-9.551 21.333-21.333s-9.551-21.333-21.333-21.333c-58.91 0-106.667 47.756-106.667 106.667v597.333c0 58.91 47.756 106.667 106.667 106.667 11.782 0 21.333-9.551 21.333-21.333s-9.551-21.333-21.333-21.333c-35.346 0-64-28.654-64-64v-597.333c0-35.346 28.654-64 64-64zM320-128c-11.782 0-21.333 9.551-21.333 21.333s9.551 21.333 21.333 21.333h42.667c11.782 0 21.333-9.551 21.333-21.333s-9.551-21.333-21.333-21.333h-42.667zM448-128c-11.782 0-21.333 9.551-21.333 21.333s9.551 21.333 21.333 21.333h42.667c11.782 0 21.333-9.551 21.333-21.333s-9.551-21.333-21.333-21.333h-42.667zM576-128c-11.782 0-21.333 9.551-21.333 21.333s9.551 21.333 21.333 21.333h42.667c11.782 0 21.333-9.551 21.333-21.333s-9.551-21.333-21.333-21.333h-42.667zM704-128c-11.782 0-21.333 9.551-21.333 21.333s9.551 21.333 21.333 21.333h42.667c11.782 0 21.333-9.551 21.333-21.333s-9.551-21.333-21.333-21.333h-42.667zM320 640c-11.782 0-21.333 9.551-21.333 21.333s9.551 21.333 21.333 21.333h42.667c11.782 0 21.333-9.551 21.333-21.333s-9.551-21.333-21.333-21.333h-42.667zM448 640c-11.782 0-21.333 9.551-21.333 21.333s9.551 21.333 21.333 21.333h42.667c11.782 0 21.333-9.551 21.333-21.333s-9.551-21.333-21.333-21.333h-42.667zM576 640c-11.782 0-21.333 9.551-21.333 21.333s9.551 21.333 21.333 21.333h42.667c11.782 0 21.333-9.551 21.333-21.333s-9.551-21.333-21.333-21.333h-42.667zM704 640c-11.782 0-21.333 9.551-21.333 21.333s9.551 21.333 21.333 21.333h42.667c11.782 0 21.333-9.551 21.333-21.333s-9.551-21.333-21.333-21.333h-42.667zM512 576c0 11.782 9.551 21.333 21.333 21.333s21.333-9.551 21.333-21.333v-42.667c0-11.782-9.551-21.333-21.333-21.333s-21.333 9.551-21.333 21.333v42.667zM896 490.667c0 11.782 9.551 21.333 21.333 21.333s21.333-9.551 21.333-21.333v-42.667c0-11.782-9.551-21.333-21.333-21.333s-21.333 9.551-21.333 21.333v42.667zM896 362.667c0 11.782 9.551 21.333 21.333 21.333s21.333-9.551 21.333-21.333v-42.667c0-11.782-9.551-21.333-21.333-21.333s-21.333 9.551-21.333 21.333v42.667zM896 234.667c0 11.782 9.551 21.333 21.333 21.333s21.333-9.551 21.333-21.333v-42.667c0-11.782-9.551-21.333-21.333-21.333s-21.333 9.551-21.333 21.333v42.667zM896 106.667c0 11.782 9.551 21.333 21.333 21.333s21.333-9.551 21.333-21.333v-42.667c0-11.782-9.551-21.333-21.333-21.333s-21.333 9.551-21.333 21.333v42.667zM512 448c0 11.782 9.551 21.333 21.333 21.333s21.333-9.551 21.333-21.333v-42.667c0-11.782-9.551-21.333-21.333-21.333s-21.333 9.551-21.333 21.333v42.667zM512 149.334c0 11.782 9.551 21.333 21.333 21.333s21.333-9.551 21.333-21.333v-42.667c0-11.782-9.551-21.333-21.333-21.333s-21.333 9.551-21.333 21.333v42.667zM512 21.334c0 11.782 9.551 21.333 21.333 21.333s21.333-9.551 21.333-21.333v-42.667c0-11.782-9.551-21.333-21.333-21.333s-21.333 9.551-21.333 21.333v42.667zM362.667 256c-11.782 0-21.333 9.551-21.333 21.333s9.551 21.333 21.333 21.333h42.667c11.782 0 21.333-9.551 21.333-21.333s-9.551-21.333-21.333-21.333h-42.667zM661.333 256c-11.782 0-21.333 9.551-21.333 21.333s9.551 21.333 21.333 21.333h42.667c11.782 0 21.333-9.551 21.333-21.333s-9.551-21.333-21.333-21.333h-42.667zM789.333 256c-11.782 0-21.333 9.551-21.333 21.333s9.551 21.333 21.333 21.333h42.667c11.782 0 21.333-9.551 21.333-21.333s-9.551-21.333-21.333-21.333h-42.667z" />
<glyph unicode="&#xe941;" glyph-name="cell-border-right" data-tags="cell-border-right" d="M810.667 256h-21.333c-11.782 0-21.333 9.551-21.333 21.333s9.551 21.333 21.333 21.333h21.333v277.333c0 11.782 9.551 21.333 21.333 21.333s21.333-9.551 21.333-21.333v-597.333c0-11.782-9.551-21.333-21.333-21.333s-21.333 9.551-21.333 21.333v277.333zM554.667 298.667h21.333c11.782 0 21.333-9.551 21.333-21.333s-9.551-21.333-21.333-21.333h-21.333v-21.333c0-11.782-9.551-21.333-21.333-21.333s-21.333 9.551-21.333 21.333v21.333h-21.333c-11.782 0-21.333 9.551-21.333 21.333s9.551 21.333 21.333 21.333h21.333v21.333c0 11.782 9.551 21.333 21.333 21.333s21.333-9.551 21.333-21.333v-21.333zM128-21.333c0 11.782 9.551 21.333 21.333 21.333s21.333-9.551 21.333-21.333c0-35.346 28.654-64 64-64 11.782 0 21.333-9.551 21.333-21.333s-9.551-21.333-21.333-21.333c-58.91 0-106.667 47.756-106.667 106.667zM170.667 576c0-11.782-9.551-21.333-21.333-21.333s-21.333 9.551-21.333 21.333c0 58.91 47.756 106.667 106.667 106.667h2.626c11.782 0 21.333-9.551 21.333-21.333s-9.551-21.333-21.333-21.333h-2.626c-35.346 0-64-28.654-64-64zM832 640c-11.782 0-21.333 9.551-21.333 21.333s9.551 21.333 21.333 21.333c58.91 0 106.667-47.756 106.667-106.667v-597.333c0-58.91-47.756-106.667-106.667-106.667-11.782 0-21.333 9.551-21.333 21.333s9.551 21.333 21.333 21.333c35.346 0 64 28.654 64 64v597.333c0 35.346-28.654 64-64 64zM746.667-85.333c11.782 0 21.333-9.551 21.333-21.333s-9.551-21.333-21.333-21.333h-42.667c-11.782 0-21.333 9.551-21.333 21.333s9.551 21.333 21.333 21.333h42.667zM618.667-85.333c11.782 0 21.333-9.551 21.333-21.333s-9.551-21.333-21.333-21.333h-42.667c-11.782 0-21.333 9.551-21.333 21.333s9.551 21.333 21.333 21.333h42.667zM490.667-85.333c11.782 0 21.333-9.551 21.333-21.333s-9.551-21.333-21.333-21.333h-42.667c-11.782 0-21.333 9.551-21.333 21.333s9.551 21.333 21.333 21.333h42.667zM362.667-85.333c11.782 0 21.333-9.551 21.333-21.333s-9.551-21.333-21.333-21.333h-42.667c-11.782 0-21.333 9.551-21.333 21.333s9.551 21.333 21.333 21.333h42.667zM746.667 682.667c11.782 0 21.333-9.551 21.333-21.333s-9.551-21.333-21.333-21.333h-42.667c-11.782 0-21.333 9.551-21.333 21.333s9.551 21.333 21.333 21.333h42.667zM618.667 682.667c11.782 0 21.333-9.551 21.333-21.333s-9.551-21.333-21.333-21.333h-42.667c-11.782 0-21.333 9.551-21.333 21.333s9.551 21.333 21.333 21.333h42.667zM490.667 682.667c11.782 0 21.333-9.551 21.333-21.333s-9.551-21.333-21.333-21.333h-42.667c-11.782 0-21.333 9.551-21.333 21.333s9.551 21.333 21.333 21.333h42.667zM362.667 682.667c11.782 0 21.333-9.551 21.333-21.333s-9.551-21.333-21.333-21.333h-42.667c-11.782 0-21.333 9.551-21.333 21.333s9.551 21.333 21.333 21.333h42.667zM512 576c0 11.782 9.551 21.333 21.333 21.333s21.333-9.551 21.333-21.333v-42.667c0-11.782-9.551-21.333-21.333-21.333s-21.333 9.551-21.333 21.333v42.667zM512 448c0 11.782 9.551 21.333 21.333 21.333s21.333-9.551 21.333-21.333v-42.667c0-11.782-9.551-21.333-21.333-21.333s-21.333 9.551-21.333 21.333v42.667zM128 490.667c0 11.782 9.551 21.333 21.333 21.333s21.333-9.551 21.333-21.333v-42.667c0-11.782-9.551-21.333-21.333-21.333s-21.333 9.551-21.333 21.333v42.667zM128 362.667c0 11.782 9.551 21.333 21.333 21.333s21.333-9.551 21.333-21.333v-42.667c0-11.782-9.551-21.333-21.333-21.333s-21.333 9.551-21.333 21.333v42.667zM128 234.667c0 11.782 9.551 21.333 21.333 21.333s21.333-9.551 21.333-21.333v-42.667c0-11.782-9.551-21.333-21.333-21.333s-21.333 9.551-21.333 21.333v42.667zM128 106.667c0 11.782 9.551 21.333 21.333 21.333s21.333-9.551 21.333-21.333v-42.667c0-11.782-9.551-21.333-21.333-21.333s-21.333 9.551-21.333 21.333v42.667zM512 149.334c0 11.782 9.551 21.333 21.333 21.333s21.333-9.551 21.333-21.333v-42.667c0-11.782-9.551-21.333-21.333-21.333s-21.333 9.551-21.333 21.333v42.667zM512 21.334c0 11.782 9.551 21.333 21.333 21.333s21.333-9.551 21.333-21.333v-42.667c0-11.782-9.551-21.333-21.333-21.333s-21.333 9.551-21.333 21.333v42.667zM661.333 256c-11.782 0-21.333 9.551-21.333 21.333s9.551 21.333 21.333 21.333h42.667c11.782 0 21.333-9.551 21.333-21.333s-9.551-21.333-21.333-21.333h-42.667zM362.667 256c-11.782 0-21.333 9.551-21.333 21.333s9.551 21.333 21.333 21.333h42.667c11.782 0 21.333-9.551 21.333-21.333s-9.551-21.333-21.333-21.333h-42.667zM234.667 256c-11.782 0-21.333 9.551-21.333 21.333s9.551 21.333 21.333 21.333h42.667c11.782 0 21.333-9.551 21.333-21.333s-9.551-21.333-21.333-21.333h-42.667z" />
<glyph unicode="&#xe942;" glyph-name="cell-border-top" data-tags="cell-border-top" d="M554.667 298.667h21.333c11.782 0 21.333-9.551 21.333-21.333s-9.551-21.333-21.333-21.333h-21.333v-21.333c0-11.782-9.551-21.333-21.333-21.333s-21.333 9.551-21.333 21.333v21.333h-21.333c-11.782 0-21.333 9.551-21.333 21.333s9.551 21.333 21.333 21.333h21.333v21.333c0 11.782 9.551 21.333 21.333 21.333s21.333-9.551 21.333-21.333v-21.333zM554.667 554.667v-21.333c0-11.782-9.551-21.333-21.333-21.333s-21.333 9.551-21.333 21.333v21.333h-277.333c-11.782 0-21.333 9.551-21.333 21.333s9.551 21.333 21.333 21.333h597.333c11.782 0 21.333-9.551 21.333-21.333s-9.551-21.333-21.333-21.333h-277.333zM832-128c-11.782 0-21.333 9.551-21.333 21.333s9.551 21.333 21.333 21.333c35.346 0 64 28.654 64 64 0 11.782 9.551 21.333 21.333 21.333s21.333-9.551 21.333-21.333c0-58.91-47.756-106.667-106.667-106.667zM234.667-85.333c11.782 0 21.333-9.551 21.333-21.333s-9.551-21.333-21.333-21.333c-58.91 0-106.667 47.756-106.667 106.667v2.626c0 11.782 9.551 21.333 21.333 21.333s21.333-9.551 21.333-21.333v-2.626c0-35.346 28.654-64 64-64zM170.667 576c0-11.782-9.551-21.333-21.333-21.333s-21.333 9.551-21.333 21.333c0 58.91 47.756 106.667 106.667 106.667h597.333c58.91 0 106.667-47.756 106.667-106.667 0-11.782-9.551-21.333-21.333-21.333s-21.333 9.551-21.333 21.333c0 35.346-28.654 64-64 64h-597.333c-35.346 0-64-28.654-64-64zM128 490.667c0 11.782 9.551 21.333 21.333 21.333s21.333-9.551 21.333-21.333v-42.667c0-11.782-9.551-21.333-21.333-21.333s-21.333 9.551-21.333 21.333v42.667zM128 362.667c0 11.782 9.551 21.333 21.333 21.333s21.333-9.551 21.333-21.333v-42.667c0-11.782-9.551-21.333-21.333-21.333s-21.333 9.551-21.333 21.333v42.667zM128 234.667c0 11.782 9.551 21.333 21.333 21.333s21.333-9.551 21.333-21.333v-42.667c0-11.782-9.551-21.333-21.333-21.333s-21.333 9.551-21.333 21.333v42.667zM128 106.667c0 11.782 9.551 21.333 21.333 21.333s21.333-9.551 21.333-21.333v-42.667c0-11.782-9.551-21.333-21.333-21.333s-21.333 9.551-21.333 21.333v42.667zM896 490.667c0 11.782 9.551 21.333 21.333 21.333s21.333-9.551 21.333-21.333v-42.667c0-11.782-9.551-21.333-21.333-21.333s-21.333 9.551-21.333 21.333v42.667zM896 362.667c0 11.782 9.551 21.333 21.333 21.333s21.333-9.551 21.333-21.333v-42.667c0-11.782-9.551-21.333-21.333-21.333s-21.333 9.551-21.333 21.333v42.667zM896 234.667c0 11.782 9.551 21.333 21.333 21.333s21.333-9.551 21.333-21.333v-42.667c0-11.782-9.551-21.333-21.333-21.333s-21.333 9.551-21.333 21.333v42.667zM896 106.667c0 11.782 9.551 21.333 21.333 21.333s21.333-9.551 21.333-21.333v-42.667c0-11.782-9.551-21.333-21.333-21.333s-21.333 9.551-21.333 21.333v42.667zM512 149.334c0 11.782 9.551 21.333 21.333 21.333s21.333-9.551 21.333-21.333v-42.667c0-11.782-9.551-21.333-21.333-21.333s-21.333 9.551-21.333 21.333v42.667zM512 448c0 11.782 9.551 21.333 21.333 21.333s21.333-9.551 21.333-21.333v-42.667c0-11.782-9.551-21.333-21.333-21.333s-21.333 9.551-21.333 21.333v42.667zM512 21.334c0 11.782 9.551 21.333 21.333 21.333s21.333-9.551 21.333-21.333v-42.667c0-11.782-9.551-21.333-21.333-21.333s-21.333 9.551-21.333 21.333v42.667zM746.667-85.333c11.782 0 21.333-9.551 21.333-21.333s-9.551-21.333-21.333-21.333h-42.667c-11.782 0-21.333 9.551-21.333 21.333s9.551 21.333 21.333 21.333h42.667zM618.667-85.333c11.782 0 21.333-9.551 21.333-21.333s-9.551-21.333-21.333-21.333h-42.667c-11.782 0-21.333 9.551-21.333 21.333s9.551 21.333 21.333 21.333h42.667zM490.667-85.333c11.782 0 21.333-9.551 21.333-21.333s-9.551-21.333-21.333-21.333h-42.667c-11.782 0-21.333 9.551-21.333 21.333s9.551 21.333 21.333 21.333h42.667zM362.667-85.333c11.782 0 21.333-9.551 21.333-21.333s-9.551-21.333-21.333-21.333h-42.667c-11.782 0-21.333 9.551-21.333 21.333s9.551 21.333 21.333 21.333h42.667zM234.667 256c-11.782 0-21.333 9.551-21.333 21.333s9.551 21.333 21.333 21.333h42.667c11.782 0 21.333-9.551 21.333-21.333s-9.551-21.333-21.333-21.333h-42.667zM362.667 256c-11.782 0-21.333 9.551-21.333 21.333s9.551 21.333 21.333 21.333h42.667c11.782 0 21.333-9.551 21.333-21.333s-9.551-21.333-21.333-21.333h-42.667zM661.333 256c-11.782 0-21.333 9.551-21.333 21.333s9.551 21.333 21.333 21.333h42.667c11.782 0 21.333-9.551 21.333-21.333s-9.551-21.333-21.333-21.333h-42.667zM789.333 256c-11.782 0-21.333 9.551-21.333 21.333s9.551 21.333 21.333 21.333h42.667c11.782 0 21.333-9.551 21.333-21.333s-9.551-21.333-21.333-21.333h-42.667z" />
<glyph unicode="&#xe943;" glyph-name="cell-empty" data-tags="cell-empty" d="M554.667 298.667h21.333c11.782 0 21.333-9.551 21.333-21.333s-9.551-21.333-21.333-21.333h-21.333v-21.333c0-11.782-9.551-21.333-21.333-21.333s-21.333 9.551-21.333 21.333v21.333h-21.333c-11.782 0-21.333 9.551-21.333 21.333s9.551 21.333 21.333 21.333h21.333v21.333c0 11.782 9.551 21.333 21.333 21.333s21.333-9.551 21.333-21.333v-21.333zM832-128c-11.782 0-21.333 9.551-21.333 21.333s9.551 21.333 21.333 21.333c35.346 0 64 28.654 64 64 0 11.782 9.551 21.333 21.333 21.333s21.333-9.551 21.333-21.333c0-58.91-47.756-106.667-106.667-106.667zM234.667-85.333c11.782 0 21.333-9.551 21.333-21.333s-9.551-21.333-21.333-21.333c-58.91 0-106.667 47.756-106.667 106.667v2.626c0 11.782 9.551 21.333 21.333 21.333s21.333-9.551 21.333-21.333v-2.626c0-35.346 28.654-64 64-64zM170.667 576c0-11.782-9.551-21.333-21.333-21.333s-21.333 9.551-21.333 21.333c0 58.91 47.756 106.667 106.667 106.667 11.782 0 21.333-9.551 21.333-21.333s-9.551-21.333-21.333-21.333c-35.346 0-64-28.654-64-64zM832 640c-11.782 0-21.333 9.551-21.333 21.333s9.551 21.333 21.333 21.333c58.91 0 106.667-47.756 106.667-106.667 0-11.782-9.551-21.333-21.333-21.333s-21.333 9.551-21.333 21.333c0 35.346-28.654 64-64 64zM128 490.667c0 11.782 9.551 21.333 21.333 21.333s21.333-9.551 21.333-21.333v-42.667c0-11.782-9.551-21.333-21.333-21.333s-21.333 9.551-21.333 21.333v42.667zM128 362.667c0 11.782 9.551 21.333 21.333 21.333s21.333-9.551 21.333-21.333v-42.667c0-11.782-9.551-21.333-21.333-21.333s-21.333 9.551-21.333 21.333v42.667zM128 234.667c0 11.782 9.551 21.333 21.333 21.333s21.333-9.551 21.333-21.333v-42.667c0-11.782-9.551-21.333-21.333-21.333s-21.333 9.551-21.333 21.333v42.667zM128 106.667c0 11.782 9.551 21.333 21.333 21.333s21.333-9.551 21.333-21.333v-42.667c0-11.782-9.551-21.333-21.333-21.333s-21.333 9.551-21.333 21.333v42.667zM896 490.667c0 11.782 9.551 21.333 21.333 21.333s21.333-9.551 21.333-21.333v-42.667c0-11.782-9.551-21.333-21.333-21.333s-21.333 9.551-21.333 21.333v42.667zM896 362.667c0 11.782 9.551 21.333 21.333 21.333s21.333-9.551 21.333-21.333v-42.667c0-11.782-9.551-21.333-21.333-21.333s-21.333 9.551-21.333 21.333v42.667zM896 234.667c0 11.782 9.551 21.333 21.333 21.333s21.333-9.551 21.333-21.333v-42.667c0-11.782-9.551-21.333-21.333-21.333s-21.333 9.551-21.333 21.333v42.667zM896 106.667c0 11.782 9.551 21.333 21.333 21.333s21.333-9.551 21.333-21.333v-42.667c0-11.782-9.551-21.333-21.333-21.333s-21.333 9.551-21.333 21.333v42.667zM746.667-85.333c11.782 0 21.333-9.551 21.333-21.333s-9.551-21.333-21.333-21.333h-42.667c-11.782 0-21.333 9.551-21.333 21.333s9.551 21.333 21.333 21.333h42.667zM618.667-85.333c11.782 0 21.333-9.551 21.333-21.333s-9.551-21.333-21.333-21.333h-42.667c-11.782 0-21.333 9.551-21.333 21.333s9.551 21.333 21.333 21.333h42.667zM490.667-85.333c11.782 0 21.333-9.551 21.333-21.333s-9.551-21.333-21.333-21.333h-42.667c-11.782 0-21.333 9.551-21.333 21.333s9.551 21.333 21.333 21.333h42.667zM362.667-85.333c11.782 0 21.333-9.551 21.333-21.333s-9.551-21.333-21.333-21.333h-42.667c-11.782 0-21.333 9.551-21.333 21.333s9.551 21.333 21.333 21.333h42.667zM746.667 682.667c11.782 0 21.333-9.551 21.333-21.333s-9.551-21.333-21.333-21.333h-42.667c-11.782 0-21.333 9.551-21.333 21.333s9.551 21.333 21.333 21.333h42.667zM618.667 682.667c11.782 0 21.333-9.551 21.333-21.333s-9.551-21.333-21.333-21.333h-42.667c-11.782 0-21.333 9.551-21.333 21.333s9.551 21.333 21.333 21.333h42.667zM490.667 682.667c11.782 0 21.333-9.551 21.333-21.333s-9.551-21.333-21.333-21.333h-42.667c-11.782 0-21.333 9.551-21.333 21.333s9.551 21.333 21.333 21.333h42.667zM362.667 682.667c11.782 0 21.333-9.551 21.333-21.333s-9.551-21.333-21.333-21.333h-42.667c-11.782 0-21.333 9.551-21.333 21.333s9.551 21.333 21.333 21.333h42.667zM512 149.334c0 11.782 9.551 21.333 21.333 21.333s21.333-9.551 21.333-21.333v-42.667c0-11.782-9.551-21.333-21.333-21.333s-21.333 9.551-21.333 21.333v42.667zM512 448c0 11.782 9.551 21.333 21.333 21.333s21.333-9.551 21.333-21.333v-42.667c0-11.782-9.551-21.333-21.333-21.333s-21.333 9.551-21.333 21.333v42.667zM512 576c0 11.782 9.551 21.333 21.333 21.333s21.333-9.551 21.333-21.333v-42.667c0-11.782-9.551-21.333-21.333-21.333s-21.333 9.551-21.333 21.333v42.667zM512 21.334c0 11.782 9.551 21.333 21.333 21.333s21.333-9.551 21.333-21.333v-42.667c0-11.782-9.551-21.333-21.333-21.333s-21.333 9.551-21.333 21.333v42.667zM234.667 256c-11.782 0-21.333 9.551-21.333 21.333s9.551 21.333 21.333 21.333h42.667c11.782 0 21.333-9.551 21.333-21.333s-9.551-21.333-21.333-21.333h-42.667zM362.667 256c-11.782 0-21.333 9.551-21.333 21.333s9.551 21.333 21.333 21.333h42.667c11.782 0 21.333-9.551 21.333-21.333s-9.551-21.333-21.333-21.333h-42.667zM661.333 256c-11.782 0-21.333 9.551-21.333 21.333s9.551 21.333 21.333 21.333h42.667c11.782 0 21.333-9.551 21.333-21.333s-9.551-21.333-21.333-21.333h-42.667zM789.333 256c-11.782 0-21.333 9.551-21.333 21.333s9.551 21.333 21.333 21.333h42.667c11.782 0 21.333-9.551 21.333-21.333s-9.551-21.333-21.333-21.333h-42.667z" />
<glyph unicode="&#xe944;" glyph-name="cell-full" data-tags="cell-full" d="M938.667 273.771v-295.104c0-58.91-47.756-106.667-106.667-106.667h-295.104c-1.159-0.195-2.349-0.296-3.563-0.296s-2.404 0.101-3.563 0.296h-295.104c-58.91 0-106.667 47.756-106.667 106.667v597.333c0 58.91 47.756 106.667 106.667 106.667h597.333c58.91 0 106.667-47.756 106.667-106.667v-295.104c0.195-1.159 0.296-2.349 0.296-3.563s-0.101-2.404-0.296-3.563v0zM170.667 298.667h341.333v341.333h-277.333c-35.346 0-64-28.654-64-64v-277.333zM170.667 256v-277.333c0-35.346 28.654-64 64-64h277.333v341.333h-341.333zM896 298.667v277.333c0 35.346-28.654 64-64 64h-277.333v-341.333h341.333zM896 256h-341.333v-341.333h277.333c35.346 0 64 28.654 64 64v277.333z" />
<glyph unicode="&#xe945;" glyph-name="cell-split-h" data-tags="cell-split-h" d="M170.667 256v-64c0-11.782-9.551-21.333-21.333-21.333s-21.333 9.551-21.333 21.333v170.667c0 11.782 9.551 21.333 21.333 21.333s21.333-9.551 21.333-21.333v-64h341.333v21.333c0 11.782 9.551 21.333 21.333 21.333s21.333-9.551 21.333-21.333v-21.333h341.333v64c0 11.782 9.551 21.333 21.333 21.333s21.333-9.551 21.333-21.333v-81.77c0.195-1.159 0.296-2.349 0.296-3.563s-0.101-2.404-0.296-3.563v-81.77c0-11.782-9.551-21.333-21.333-21.333s-21.333 9.551-21.333 21.333v64h-341.333v-21.63c0-11.782-9.551-21.333-21.333-21.333s-21.333 9.551-21.333 21.333v21.63h-341.333zM832-128c-11.782 0-21.333 9.551-21.333 21.333s9.551 21.333 21.333 21.333c35.346 0 64 28.654 64 64 0 11.782 9.551 21.333 21.333 21.333s21.333-9.551 21.333-21.333c0-58.91-47.756-106.667-106.667-106.667zM234.667-85.333c11.782 0 21.333-9.551 21.333-21.333s-9.551-21.333-21.333-21.333c-58.91 0-106.667 47.756-106.667 106.667v2.626c0 11.782 9.551 21.333 21.333 21.333s21.333-9.551 21.333-21.333v-2.626c0-35.346 28.654-64 64-64zM170.667 576c0-11.782-9.551-21.333-21.333-21.333s-21.333 9.551-21.333 21.333c0 58.91 47.756 106.667 106.667 106.667 11.782 0 21.333-9.551 21.333-21.333s-9.551-21.333-21.333-21.333c-35.346 0-64-28.654-64-64zM320 640c-11.782 0-21.333 9.551-21.333 21.333s9.551 21.333 21.333 21.333h42.667c11.782 0 21.333-9.551 21.333-21.333s-9.551-21.333-21.333-21.333h-42.667zM448 640c-11.782 0-21.333 9.551-21.333 21.333s9.551 21.333 21.333 21.333h170.667c11.782 0 21.333-9.551 21.333-21.333s-9.551-21.333-21.333-21.333h-170.667zM704 640c-11.782 0-21.333 9.551-21.333 21.333s9.551 21.333 21.333 21.333h42.667c11.782 0 21.333-9.551 21.333-21.333s-9.551-21.333-21.333-21.333h-42.667zM832 640c-11.782 0-21.333 9.551-21.333 21.333s9.551 21.333 21.333 21.333c58.91 0 106.667-47.756 106.667-106.667 0-11.782-9.551-21.333-21.333-21.333s-21.333 9.551-21.333 21.333c0 35.346-28.654 64-64 64zM512 576c0 11.782 9.551 21.333 21.333 21.333s21.333-9.551 21.333-21.333v-42.963c0-11.782-9.551-21.333-21.333-21.333s-21.333 9.551-21.333 21.333v42.963zM512 448c0 11.782 9.551 21.333 21.333 21.333s21.333-9.551 21.333-21.333v-42.963c0-11.782-9.551-21.333-21.333-21.333s-21.333 9.551-21.333 21.333v42.963zM512 149.334c0 11.782 9.551 21.333 21.333 21.333s21.333-9.551 21.333-21.333v-42.963c0-11.782-9.551-21.333-21.333-21.333s-21.333 9.551-21.333 21.333v42.963zM512 21.334c0 11.782 9.551 21.333 21.333 21.333s21.333-9.551 21.333-21.333v-42.963c0-11.782-9.551-21.333-21.333-21.333s-21.333 9.551-21.333 21.333v42.963zM896 490.667c0 11.782 9.551 21.333 21.333 21.333s21.333-9.551 21.333-21.333v-42.667c0-11.782-9.551-21.333-21.333-21.333s-21.333 9.551-21.333 21.333v42.667zM896 106.667c0 11.782 9.551 21.333 21.333 21.333s21.333-9.551 21.333-21.333v-42.667c0-11.782-9.551-21.333-21.333-21.333s-21.333 9.551-21.333 21.333v42.667zM128 490.667c0 11.782 9.551 21.333 21.333 21.333s21.333-9.551 21.333-21.333v-42.667c0-11.782-9.551-21.333-21.333-21.333s-21.333 9.551-21.333 21.333v42.667zM128 106.667c0 11.782 9.551 21.333 21.333 21.333s21.333-9.551 21.333-21.333v-42.667c0-11.782-9.551-21.333-21.333-21.333s-21.333 9.551-21.333 21.333v42.667zM320-128c-11.782 0-21.333 9.551-21.333 21.333s9.551 21.333 21.333 21.333h42.667c11.782 0 21.333-9.551 21.333-21.333s-9.551-21.333-21.333-21.333h-42.667zM448-128c-11.782 0-21.333 9.551-21.333 21.333s9.551 21.333 21.333 21.333h170.667c11.782 0 21.333-9.551 21.333-21.333s-9.551-21.333-21.333-21.333h-170.667zM704-128c-11.782 0-21.333 9.551-21.333 21.333s9.551 21.333 21.333 21.333h42.667c11.782 0 21.333-9.551 21.333-21.333s-9.551-21.333-21.333-21.333h-42.667z" />
<glyph unicode="&#xe946;" glyph-name="cell-split-v" data-tags="cell-split-v" d="M512 256h-21.333c-11.782 0-21.333 9.551-21.333 21.333s9.551 21.333 21.333 21.333h21.333v341.333h-64c-11.782 0-21.333 9.551-21.333 21.333s9.551 21.333 21.333 21.333h170.667c11.782 0 21.333-9.551 21.333-21.333s-9.551-21.333-21.333-21.333h-64v-341.333h21.333c11.782 0 21.333-9.551 21.333-21.333s-9.551-21.333-21.333-21.333h-21.333v-341.333h64c11.782 0 21.333-9.551 21.333-21.333s-9.551-21.333-21.333-21.333h-81.77c-1.159-0.195-2.349-0.296-3.563-0.296s-2.404 0.101-3.563 0.296h-81.77c-11.782 0-21.333 9.551-21.333 21.333s9.551 21.333 21.333 21.333h64v341.333zM832-128c-11.782 0-21.333 9.551-21.333 21.333s9.551 21.333 21.333 21.333c35.346 0 64 28.654 64 64 0 11.782 9.551 21.333 21.333 21.333s21.333-9.551 21.333-21.333c0-58.91-47.756-106.667-106.667-106.667zM234.667-85.333c11.782 0 21.333-9.551 21.333-21.333s-9.551-21.333-21.333-21.333c-58.91 0-106.667 47.756-106.667 106.667v2.626c0 11.782 9.551 21.333 21.333 21.333s21.333-9.551 21.333-21.333v-2.626c0-35.346 28.654-64 64-64zM170.667 576c0-11.782-9.551-21.333-21.333-21.333s-21.333 9.551-21.333 21.333c0 58.91 47.756 106.667 106.667 106.667 11.782 0 21.333-9.551 21.333-21.333s-9.551-21.333-21.333-21.333c-35.346 0-64-28.654-64-64zM320 640c-11.782 0-21.333 9.551-21.333 21.333s9.551 21.333 21.333 21.333h42.667c11.782 0 21.333-9.551 21.333-21.333s-9.551-21.333-21.333-21.333h-42.667zM704 640c-11.782 0-21.333 9.551-21.333 21.333s9.551 21.333 21.333 21.333h42.667c11.782 0 21.333-9.551 21.333-21.333s-9.551-21.333-21.333-21.333h-42.667zM832 640c-11.782 0-21.333 9.551-21.333 21.333s9.551 21.333 21.333 21.333c58.91 0 106.667-47.756 106.667-106.667 0-11.782-9.551-21.333-21.333-21.333s-21.333 9.551-21.333 21.333c0 35.346-28.654 64-64 64zM896 490.667c0 11.782 9.551 21.333 21.333 21.333s21.333-9.551 21.333-21.333v-42.667c0-11.782-9.551-21.333-21.333-21.333s-21.333 9.551-21.333 21.333v42.667zM896 106.667c0 11.782 9.551 21.333 21.333 21.333s21.333-9.551 21.333-21.333v-42.667c0-11.782-9.551-21.333-21.333-21.333s-21.333 9.551-21.333 21.333v42.667zM896 362.667c0 11.782 9.551 21.333 21.333 21.333s21.333-9.551 21.333-21.333v-170.667c0-11.782-9.551-21.333-21.333-21.333s-21.333 9.551-21.333 21.333v170.667zM128 490.667c0 11.782 9.551 21.333 21.333 21.333s21.333-9.551 21.333-21.333v-42.667c0-11.782-9.551-21.333-21.333-21.333s-21.333 9.551-21.333 21.333v42.667zM128 106.667c0 11.782 9.551 21.333 21.333 21.333s21.333-9.551 21.333-21.333v-42.667c0-11.782-9.551-21.333-21.333-21.333s-21.333 9.551-21.333 21.333v42.667zM128 362.667c0 11.782 9.551 21.333 21.333 21.333s21.333-9.551 21.333-21.333v-170.667c0-11.782-9.551-21.333-21.333-21.333s-21.333 9.551-21.333 21.333v170.667zM320-128c-11.782 0-21.333 9.551-21.333 21.333s9.551 21.333 21.333 21.333h42.667c11.782 0 21.333-9.551 21.333-21.333s-9.551-21.333-21.333-21.333h-42.667zM704-128c-11.782 0-21.333 9.551-21.333 21.333s9.551 21.333 21.333 21.333h42.667c11.782 0 21.333-9.551 21.333-21.333s-9.551-21.333-21.333-21.333h-42.667zM234.667 256c-11.782 0-21.333 9.551-21.333 21.333s9.551 21.333 21.333 21.333h42.667c11.782 0 21.333-9.551 21.333-21.333s-9.551-21.333-21.333-21.333h-42.667zM362.667 256c-11.782 0-21.333 9.551-21.333 21.333s9.551 21.333 21.333 21.333h42.667c11.782 0 21.333-9.551 21.333-21.333s-9.551-21.333-21.333-21.333h-42.667zM661.333 256c-11.782 0-21.333 9.551-21.333 21.333s9.551 21.333 21.333 21.333h42.667c11.782 0 21.333-9.551 21.333-21.333s-9.551-21.333-21.333-21.333h-42.667zM789.333 256c-11.782 0-21.333 9.551-21.333 21.333s9.551 21.333 21.333 21.333h42.667c11.782 0 21.333-9.551 21.333-21.333s-9.551-21.333-21.333-21.333h-42.667z" />
<glyph unicode="&#xe947;" glyph-name="cell-split" data-tags="cell-split" d="M554.667-85.333h64c11.782 0 21.333-9.551 21.333-21.333s-9.551-21.333-21.333-21.333h-81.77c-1.159-0.195-2.349-0.296-3.563-0.296s-2.404 0.101-3.563 0.296h-81.77c-11.782 0-21.333 9.551-21.333 21.333s9.551 21.333 21.333 21.333h64v341.333h-341.333v-64c0-11.782-9.551-21.333-21.333-21.333s-21.333 9.551-21.333 21.333v170.667c0 11.782 9.551 21.333 21.333 21.333s21.333-9.551 21.333-21.333v-64h341.333v341.333h-64c-11.782 0-21.333 9.551-21.333 21.333s9.551 21.333 21.333 21.333h170.667c11.782 0 21.333-9.551 21.333-21.333s-9.551-21.333-21.333-21.333h-64v-341.333h341.333v64c0 11.782 9.551 21.333 21.333 21.333s21.333-9.551 21.333-21.333v-81.77c0.195-1.159 0.296-2.349 0.296-3.563s-0.101-2.404-0.296-3.563v-81.77c0-11.782-9.551-21.333-21.333-21.333s-21.333 9.551-21.333 21.333v64h-341.333v-341.333zM832-128c-11.782 0-21.333 9.551-21.333 21.333s9.551 21.333 21.333 21.333c35.346 0 64 28.654 64 64 0 11.782 9.551 21.333 21.333 21.333s21.333-9.551 21.333-21.333c0-58.91-47.756-106.667-106.667-106.667zM234.667-85.333c11.782 0 21.333-9.551 21.333-21.333s-9.551-21.333-21.333-21.333c-58.91 0-106.667 47.756-106.667 106.667v2.626c0 11.782 9.551 21.333 21.333 21.333s21.333-9.551 21.333-21.333v-2.626c0-35.346 28.654-64 64-64zM170.667 576c0-11.782-9.551-21.333-21.333-21.333s-21.333 9.551-21.333 21.333c0 58.91 47.756 106.667 106.667 106.667 11.782 0 21.333-9.551 21.333-21.333s-9.551-21.333-21.333-21.333c-35.346 0-64-28.654-64-64zM320 640c-11.782 0-21.333 9.551-21.333 21.333s9.551 21.333 21.333 21.333h42.667c11.782 0 21.333-9.551 21.333-21.333s-9.551-21.333-21.333-21.333h-42.667zM704 640c-11.782 0-21.333 9.551-21.333 21.333s9.551 21.333 21.333 21.333h42.667c11.782 0 21.333-9.551 21.333-21.333s-9.551-21.333-21.333-21.333h-42.667zM832 640c-11.782 0-21.333 9.551-21.333 21.333s9.551 21.333 21.333 21.333c58.91 0 106.667-47.756 106.667-106.667 0-11.782-9.551-21.333-21.333-21.333s-21.333 9.551-21.333 21.333c0 35.346-28.654 64-64 64zM896 490.667c0 11.782 9.551 21.333 21.333 21.333s21.333-9.551 21.333-21.333v-42.667c0-11.782-9.551-21.333-21.333-21.333s-21.333 9.551-21.333 21.333v42.667zM896 106.667c0 11.782 9.551 21.333 21.333 21.333s21.333-9.551 21.333-21.333v-42.667c0-11.782-9.551-21.333-21.333-21.333s-21.333 9.551-21.333 21.333v42.667zM128 490.667c0 11.782 9.551 21.333 21.333 21.333s21.333-9.551 21.333-21.333v-42.667c0-11.782-9.551-21.333-21.333-21.333s-21.333 9.551-21.333 21.333v42.667zM128 106.667c0 11.782 9.551 21.333 21.333 21.333s21.333-9.551 21.333-21.333v-42.667c0-11.782-9.551-21.333-21.333-21.333s-21.333 9.551-21.333 21.333v42.667zM320-128c-11.782 0-21.333 9.551-21.333 21.333s9.551 21.333 21.333 21.333h42.667c11.782 0 21.333-9.551 21.333-21.333s-9.551-21.333-21.333-21.333h-42.667zM704-128c-11.782 0-21.333 9.551-21.333 21.333s9.551 21.333 21.333 21.333h42.667c11.782 0 21.333-9.551 21.333-21.333s-9.551-21.333-21.333-21.333h-42.667z" />
<glyph unicode="&#xe948;" glyph-name="archive" data-tags="archive" d="M128 618.667v-85.333c0-11.782 9.551-21.333 21.333-21.333h725.333c11.782 0 21.333 9.551 21.333 21.333v85.333c0 11.782-9.551 21.333-21.333 21.333h-725.333c-11.782 0-21.333-9.551-21.333-21.333zM896 472.975v-451.642c0-58.91-47.756-106.667-106.667-106.667h-554.667c-58.91 0-106.667 47.756-106.667 106.667v451.642c-24.857 8.786-42.667 32.492-42.667 60.358v85.333c0 35.346 28.654 64 64 64h725.333c35.346 0 64-28.654 64-64v-85.333c0-27.866-17.809-51.572-42.667-60.358v0zM853.333 469.334h-682.667v-448c0-35.346 28.654-64 64-64h554.667c35.346 0 64 28.654 64 64v448zM341.333 320c0 35.346 28.654 64 64 64h213.333c35.346 0 64-28.654 64-64s-28.654-64-64-64h-213.333c-35.346 0-64 28.654-64 64zM384 320c0-11.782 9.551-21.333 21.333-21.333h213.333c11.782 0 21.333 9.551 21.333 21.333s-9.551 21.333-21.333 21.333h-213.333c-11.782 0-21.333-9.551-21.333-21.333z" />
<glyph unicode="&#xe949;" glyph-name="document" data-tags="document" d="M853.333 532.097v-553.473c0-58.91-47.756-106.667-106.667-106.667h-469.333c-58.91 0-106.667 47.756-106.667 106.667v640c0 58.91 47.756 106.667 106.667 106.667h382.806c5.664 0.359 11.559-1.529 16.279-6.248l170.667-170.667c4.719-4.719 6.608-10.615 6.248-16.279zM640 682.624h-362.667c-35.346 0-64-28.654-64-64v-640c0-35.346 28.654-64 64-64h469.333c35.346 0 64 28.654 64 64v533.333h-149.333c-11.782 0-21.333 9.551-21.333 21.333v149.333zM682.667 652.454v-97.83h97.83l-97.83 97.83zM362.667 384c-11.782 0-21.333 9.551-21.333 21.333s9.551 21.333 21.333 21.333h298.667c11.782 0 21.333-9.551 21.333-21.333s-9.551-21.333-21.333-21.333h-298.667zM362.667 256c-11.782 0-21.333 9.551-21.333 21.333s9.551 21.333 21.333 21.333h298.667c11.782 0 21.333-9.551 21.333-21.333s-9.551-21.333-21.333-21.333h-298.667zM362.667 128c-11.782 0-21.333 9.551-21.333 21.333s9.551 21.333 21.333 21.333h213.333c11.782 0 21.333-9.551 21.333-21.333s-9.551-21.333-21.333-21.333h-213.333z" />
<glyph unicode="&#xe94a;" glyph-name="folder-delete" data-tags="folder-delete" d="M542.17 256l91.582-91.582c8.331-8.331 8.331-21.839 0-30.17s-21.839-8.331-30.17 0l-91.582 91.582-91.582-91.582c-8.331-8.331-21.839-8.331-30.17 0s-8.331 21.839 0 30.17l91.582 91.582-91.582 91.582c-8.331 8.331-8.331 21.839 0 30.17s21.839 8.331 30.17 0l91.582-91.582 91.582 91.582c8.331 8.331 21.839 8.331 30.17 0s8.331-21.839 0-30.17l-91.582-91.582zM192 640h277.333c47.128 0 85.333-38.205 85.333-85.333 0-23.564 19.103-42.667 42.667-42.667h234.667c58.91 0 106.667-47.756 106.667-106.667v-341.333c0-58.91-47.756-106.667-106.667-106.667h-640c-58.91 0-106.667 47.756-106.667 106.667v469.333c0 58.91 47.756 106.667 106.667 106.667zM192 597.334c-35.346 0-64-28.654-64-64v-469.333c0-35.346 28.654-64 64-64h640c35.346 0 64 28.654 64 64v341.333c0 35.346-28.654 64-64 64h-234.667c-47.128 0-85.333 38.205-85.333 85.333 0 23.564-19.103 42.667-42.667 42.667h-277.333z" />
<glyph unicode="&#xe94b;" glyph-name="folder-minus" data-tags="folder-minus" d="M192 597.334c-35.346 0-64-28.654-64-64v-469.333c0-35.346 28.654-64 64-64h640c35.346 0 64 28.654 64 64v341.333c0 35.346-28.654 64-64 64h-234.667c-47.128 0-85.333 38.205-85.333 85.333 0 23.564-19.103 42.667-42.667 42.667h-277.333zM192 640h277.333c47.128 0 85.333-38.205 85.333-85.333 0-23.564 19.103-42.667 42.667-42.667h234.667c58.91 0 106.667-47.756 106.667-106.667v-341.333c0-58.91-47.756-106.667-106.667-106.667h-640c-58.91 0-106.667 47.756-106.667 106.667v469.333c0 58.91 47.756 106.667 106.667 106.667zM618.667 256c11.782 0 21.333-9.551 21.333-21.333s-9.551-21.333-21.333-21.333h-256c-11.782 0-21.333 9.551-21.333 21.333s9.551 21.333 21.333 21.333h256z" />
<glyph unicode="&#xe94c;" glyph-name="folder-open" data-tags="folder-open" d="M896 362.675v42.659c0 35.346-28.654 64-64 64h-234.667c-47.128 0-85.333 38.205-85.333 85.333 0 23.564-19.103 42.667-42.667 42.667h-277.333c-35.346 0-64-28.654-64-64v-469.333c0-35.346 28.654-64 64-64h42.667c35.346 0 64 28.654 64 64v213.333c0 58.91 47.756 106.667 106.667 106.667h426.667c24.013 0 46.173-7.935 64-21.326v0zM896 277.334c0 35.346-28.654 64-64 64h-426.667c-35.346 0-64-28.654-64-64v-213.333c0-24.013-7.935-46.173-21.326-64h511.992c35.346 0 64 28.654 64 64v213.333zM192 640h277.333c47.128 0 85.333-38.205 85.333-85.333 0-23.564 19.103-42.667 42.667-42.667h234.667c58.91 0 106.667-47.756 106.667-106.667v-341.333c0-58.91-47.756-106.667-106.667-106.667h-640c-58.91 0-106.667 47.756-106.667 106.667v469.333c0 58.91 47.756 106.667 106.667 106.667z" />
<glyph unicode="&#xe94d;" glyph-name="folder-plus" data-tags="folder-plus" d="M512 213.334v-106.667c0-11.782-9.551-21.333-21.333-21.333s-21.333 9.551-21.333 21.333v106.667h-106.667c-11.782 0-21.333 9.551-21.333 21.333s9.551 21.333 21.333 21.333h106.667v106.667c0 11.782 9.551 21.333 21.333 21.333s21.333-9.551 21.333-21.333v-106.667h106.667c11.782 0 21.333-9.551 21.333-21.333s-9.551-21.333-21.333-21.333h-106.667zM192 640h277.333c47.128 0 85.333-38.205 85.333-85.333 0-23.564 19.103-42.667 42.667-42.667h234.667c58.91 0 106.667-47.756 106.667-106.667v-341.333c0-58.91-47.756-106.667-106.667-106.667h-640c-58.91 0-106.667 47.756-106.667 106.667v469.333c0 58.91 47.756 106.667 106.667 106.667zM192 597.334c-35.346 0-64-28.654-64-64v-469.333c0-35.346 28.654-64 64-64h640c35.346 0 64 28.654 64 64v341.333c0 35.346-28.654 64-64 64h-234.667c-47.128 0-85.333 38.205-85.333 85.333 0 23.564-19.103 42.667-42.667 42.667h-277.333z" />
<glyph unicode="&#xe94e;" glyph-name="folder" data-tags="folder" d="M192 597.334c-35.346 0-64-28.654-64-64v-469.333c0-35.346 28.654-64 64-64h640c35.346 0 64 28.654 64 64v341.333c0 35.346-28.654 64-64 64h-234.667c-47.128 0-85.333 38.205-85.333 85.333 0 23.564-19.103 42.667-42.667 42.667h-277.333zM192 640h277.333c47.128 0 85.333-38.205 85.333-85.333 0-23.564 19.103-42.667 42.667-42.667h234.667c58.91 0 106.667-47.756 106.667-106.667v-341.333c0-58.91-47.756-106.667-106.667-106.667h-640c-58.91 0-106.667 47.756-106.667 106.667v469.333c0 58.91 47.756 106.667 106.667 106.667z" />
<glyph unicode="&#xe94f;" glyph-name="note" data-tags="note" d="M810.667 192v384c0 35.346-28.654 64-64 64h-469.333c-35.346 0-64-28.654-64-64v-554.667c0-35.346 28.654-64 64-64h298.667c35.346 0 64 28.654 64 64 0 58.91 47.756 106.667 106.667 106.667 35.346 0 64 28.654 64 64v0zM789.395 94.236c-13.082-5.726-27.534-8.902-42.728-8.902-35.346 0-64-28.654-64-64 0-15.194-3.177-29.646-8.902-42.728 51.030 23.417 92.213 64.6 115.631 115.631v0zM170.667 576c0 58.91 47.756 106.667 106.667 106.667h469.333c58.91 0 106.667-47.756 106.667-106.667v-384c0-153.167-124.166-277.333-277.333-277.333h-298.667c-58.91 0-106.667 47.756-106.667 106.667v554.667zM362.667 426.667c-11.782 0-21.333 9.551-21.333 21.333s9.551 21.333 21.333 21.333h298.667c11.782 0 21.333-9.551 21.333-21.333s-9.551-21.333-21.333-21.333h-298.667zM362.667 298.667c-11.782 0-21.333 9.551-21.333 21.333s9.551 21.333 21.333 21.333h298.667c11.782 0 21.333-9.551 21.333-21.333s-9.551-21.333-21.333-21.333h-298.667zM362.667 170.667c-11.782 0-21.333 9.551-21.333 21.333s9.551 21.333 21.333 21.333h213.333c11.782 0 21.333-9.551 21.333-21.333s-9.551-21.333-21.333-21.333h-213.333z" />
<glyph unicode="&#xe950;" glyph-name="notebook" data-tags="notebook" d="M170.667 128v341.333h-21.333c-11.782 0-21.333 9.551-21.333 21.333s9.551 21.333 21.333 21.333h21.333v64c0 58.91 47.756 106.667 106.667 106.667h469.333c58.91 0 106.667-47.756 106.667-106.667v-554.667c0-58.91-47.756-106.667-106.667-106.667h-469.333c-58.91 0-106.667 47.756-106.667 106.667v64h-21.333c-11.782 0-21.333 9.551-21.333 21.333s9.551 21.333 21.333 21.333h21.333zM213.333 128h21.333c11.782 0 21.333-9.551 21.333-21.333s-9.551-21.333-21.333-21.333h-21.333v-64c0-35.346 28.654-64 64-64h469.333c35.346 0 64 28.654 64 64v554.667c0 35.346-28.654 64-64 64h-469.333c-35.346 0-64-28.654-64-64v-64h21.333c11.782 0 21.333-9.551 21.333-21.333s-9.551-21.333-21.333-21.333h-21.333v-341.333zM362.667 554.667h298.667c35.346 0 64-28.654 64-64v-85.333c0-35.346-28.654-64-64-64h-298.667c-35.346 0-64 28.654-64 64v85.333c0 35.346 28.654 64 64 64zM362.667 512c-11.782 0-21.333-9.551-21.333-21.333v-85.333c0-11.782 9.551-21.333 21.333-21.333h298.667c11.782 0 21.333 9.551 21.333 21.333v85.333c0 11.782-9.551 21.333-21.333 21.333h-298.667z" />
<glyph unicode="&#xe951;" glyph-name="script" data-tags="script" d="M768 42.667v576c0 35.346-28.654 64-64 64h-459.416c7.261-12.551 11.416-27.124 11.416-42.667v-682.667c0-23.564 19.103-42.667 42.667-42.667s42.667 19.103 42.667 42.667v64c0 11.782 9.551 21.333 21.333 21.333h405.333zM810.667 42.667h106.667c11.782 0 21.333-9.551 21.333-21.333v-42.667c0-58.91-47.756-106.667-106.667-106.667h-533.333c-47.128 0-85.333 38.205-85.333 85.333v597.333h-42.667c-47.128 0-85.333 38.205-85.333 85.333s38.205 85.333 85.333 85.333h533.333c58.91 0 106.667-47.756 106.667-106.667v-576zM384-0v-42.667c0-15.543-4.155-30.115-11.416-42.667h459.416c35.346 0 64 28.654 64 64v21.333h-512zM213.333 597.334v42.667c0 23.564-19.103 42.667-42.667 42.667s-42.667-19.103-42.667-42.667c0-23.564 19.103-42.667 42.667-42.667h42.667zM362.667 512c-11.782 0-21.333 9.551-21.333 21.333s9.551 21.333 21.333 21.333h298.667c11.782 0 21.333-9.551 21.333-21.333s-9.551-21.333-21.333-21.333h-298.667zM362.667 384c-11.782 0-21.333 9.551-21.333 21.333s9.551 21.333 21.333 21.333h298.667c11.782 0 21.333-9.551 21.333-21.333s-9.551-21.333-21.333-21.333h-298.667zM362.667 256c-11.782 0-21.333 9.551-21.333 21.333s9.551 21.333 21.333 21.333h298.667c11.782 0 21.333-9.551 21.333-21.333s-9.551-21.333-21.333-21.333h-298.667zM362.667 128c-11.782 0-21.333 9.551-21.333 21.333s9.551 21.333 21.333 21.333h213.333c11.782 0 21.333-9.551 21.333-21.333s-9.551-21.333-21.333-21.333h-213.333z" />
<glyph unicode="&#xe952;" glyph-name="sticker" data-tags="sticker" d="M853.333 320v170.667c0 82.475-66.859 149.333-149.333 149.333h-384c-82.475 0-149.333-66.859-149.333-149.333v-384c0-82.475 66.859-149.333 149.333-149.333h213.333c35.346 0 64 28.654 64 64v85.333c0 82.475 66.859 149.333 149.333 149.333h42.667c35.346 0 64 28.654 64 64zM850.203 232.395c-17.262-12.016-38.243-19.061-60.869-19.061h-42.667c-58.91 0-106.667-47.756-106.667-106.667v-85.333c0-18.018-4.467-34.992-12.354-49.875 116.846 35.986 205.151 137.084 222.557 260.936v0zM320 682.667h384c106.039 0 192-85.961 192-192v-213.333c0-200.295-162.371-362.667-362.667-362.667h-213.333c-106.039 0-192 85.961-192 192v384c0 106.039 85.961 192 192 192z" />
<glyph unicode="&#xe953;" glyph-name="sticky-notes" data-tags="sticky-notes" d="M836.622-21.792c10.381 11.376 16.711 26.512 16.711 43.126v554.667c0 35.346-28.654 64-64 64h-554.667c-35.346 0-64-28.654-64-64v-554.667c0-35.346 28.654-64 64-64s64 28.654 64 64v85.333c0 14.222 13.653 24.462 27.307 20.48l510.649-148.939zM755.81-42.666l-414.476 120.889v-56.889c0-24.013-7.935-46.173-21.326-64h435.802zM789.333 682.667c58.91 0 106.667-47.756 106.667-106.667v-554.667c0-58.91-47.756-106.667-106.667-106.667h-554.667c-58.91 0-106.667 47.756-106.667 106.667v554.667c0 58.91 47.756 106.667 106.667 106.667h554.667z" />
<glyph unicode="&#xe954;" glyph-name="tray-delete" data-tags="tray-delete" d="M170.667 170.667h234.667c11.782 0 21.333-9.551 21.333-21.333 0-35.346 28.654-64 64-64h42.667c35.346 0 64 28.654 64 64 0 11.782 9.551 21.333 21.333 21.333h234.667v192c0 11.782 9.551 21.333 21.333 21.333s21.333-9.551 21.333-21.333v-341.333c0-58.91-47.756-106.667-106.667-106.667h-554.667c-58.91 0-106.667 47.756-106.667 106.667v554.667c0 58.91 47.756 106.667 106.667 106.667h341.333c11.782 0 21.333-9.551 21.333-21.333s-9.551-21.333-21.333-21.333h-341.333c-35.346 0-64-28.654-64-64v-405.333zM170.667 128v-106.667c0-35.346 28.654-64 64-64h554.667c35.346 0 64 28.654 64 64v106.667h-215.467c-9.883-48.688-52.929-85.333-104.533-85.333h-42.667c-51.604 0-94.65 36.646-104.533 85.333h-215.467zM819.503 576l70.248-70.248c8.331-8.331 8.331-21.839 0-30.17s-21.839-8.331-30.17 0l-70.248 70.248-70.248-70.248c-8.331-8.331-21.839-8.331-30.17 0s-8.331 21.839 0 30.17l70.248 70.248-70.248 70.248c-8.331 8.331-8.331 21.839 0 30.17s21.839 8.331 30.17 0l70.248-70.248 70.248 70.248c8.331 8.331 21.839 8.331 30.17 0s8.331-21.839 0-30.17l-70.248-70.248z" />
<glyph unicode="&#xe955;" glyph-name="tray-empty" data-tags="tray-empty" d="M853.333 170.667v405.333c0 35.346-28.654 64-64 64h-554.667c-35.346 0-64-28.654-64-64v-405.333h234.667c11.782 0 21.333-9.551 21.333-21.333 0-35.346 28.654-64 64-64h42.667c35.346 0 64 28.654 64 64 0 11.782 9.551 21.333 21.333 21.333h234.667zM853.333 128h-215.467c-9.883-48.688-52.929-85.333-104.533-85.333h-42.667c-51.604 0-94.65 36.646-104.533 85.333h-215.467v-106.667c0-35.346 28.654-64 64-64h554.667c35.346 0 64 28.654 64 64v106.667zM234.667 682.667h554.667c58.91 0 106.667-47.756 106.667-106.667v-554.667c0-58.91-47.756-106.667-106.667-106.667h-554.667c-58.91 0-106.667 47.756-106.667 106.667v554.667c0 58.91 47.756 106.667 106.667 106.667z" />
<glyph unicode="&#xe956;" glyph-name="tray-export" data-tags="tray-export" d="M170.667 170.667h234.667c11.782 0 21.333-9.551 21.333-21.333 0-35.346 28.654-64 64-64h42.667c35.346 0 64 28.654 64 64 0 11.782 9.551 21.333 21.333 21.333h234.667v277.333c0 11.782 9.551 21.333 21.333 21.333s21.333-9.551 21.333-21.333v-426.667c0-58.91-47.756-106.667-106.667-106.667h-554.667c-58.91 0-106.667 47.756-106.667 106.667v554.667c0 58.91 47.756 106.667 106.667 106.667h213.333c11.782 0 21.333-9.551 21.333-21.333s-9.551-21.333-21.333-21.333h-213.333c-35.346 0-64-28.654-64-64v-405.333zM170.667 128v-106.667c0-35.346 28.654-64 64-64h554.667c35.346 0 64 28.654 64 64v106.667h-215.467c-9.883-48.688-52.929-85.333-104.533-85.333h-42.667c-51.604 0-94.65 36.646-104.533 85.333h-215.467zM682.667 609.83v-247.163c0-11.782-9.551-21.333-21.333-21.333s-21.333 9.551-21.333 21.333v247.163l-48.915-48.915c-8.331-8.331-21.839-8.331-30.17 0s-8.331 21.839 0 30.17l85.333 85.333c8.331 8.331 21.839 8.331 30.17 0l85.333-85.333c8.331-8.331 8.331-21.839 0-30.17s-21.839-8.331-30.17 0l-48.915 48.915z" />
<glyph unicode="&#xe957;" glyph-name="tray-import" data-tags="tray-import" d="M682.667 414.17l48.915 48.915c8.331 8.331 21.839 8.331 30.17 0s8.331-21.839 0-30.17l-85.333-85.333c-8.331-8.331-21.839-8.331-30.17 0l-85.333 85.333c-8.331 8.331-8.331 21.839 0 30.17s21.839 8.331 30.17 0l48.915-48.915v247.163c0 11.782 9.551 21.333 21.333 21.333s21.333-9.551 21.333-21.333v-247.163zM170.667 170.667h234.667c11.782 0 21.333-9.551 21.333-21.333 0-35.346 28.654-64 64-64h42.667c35.346 0 64 28.654 64 64 0 11.782 9.551 21.333 21.333 21.333h234.667v277.333c0 11.782 9.551 21.333 21.333 21.333s21.333-9.551 21.333-21.333v-426.667c0-58.91-47.756-106.667-106.667-106.667h-554.667c-58.91 0-106.667 47.756-106.667 106.667v554.667c0 58.91 47.756 106.667 106.667 106.667h213.333c11.782 0 21.333-9.551 21.333-21.333s-9.551-21.333-21.333-21.333h-213.333c-35.346 0-64-28.654-64-64v-405.333zM170.667 128v-106.667c0-35.346 28.654-64 64-64h554.667c35.346 0 64 28.654 64 64v106.667h-215.467c-9.883-48.688-52.929-85.333-104.533-85.333h-42.667c-51.604 0-94.65 36.646-104.533 85.333h-215.467z" />
<glyph unicode="&#xe958;" glyph-name="tray-minus" data-tags="tray-minus" d="M170.667 170.667h234.667c11.782 0 21.333-9.551 21.333-21.333 0-35.346 28.654-64 64-64h42.667c35.346 0 64 28.654 64 64 0 11.782 9.551 21.333 21.333 21.333h234.667v234.667c0 11.782 9.551 21.333 21.333 21.333s21.333-9.551 21.333-21.333v-384c0-58.91-47.756-106.667-106.667-106.667h-554.667c-58.91 0-106.667 47.756-106.667 106.667v554.667c0 58.91 47.756 106.667 106.667 106.667h384c11.782 0 21.333-9.551 21.333-21.333s-9.551-21.333-21.333-21.333h-384c-35.346 0-64-28.654-64-64v-405.333zM170.667 128v-106.667c0-35.346 28.654-64 64-64h554.667c35.346 0 64 28.654 64 64v106.667h-215.467c-9.883-48.688-52.929-85.333-104.533-85.333h-42.667c-51.604 0-94.65 36.646-104.533 85.333h-215.467zM874.667 597.334c11.782 0 21.333-9.551 21.333-21.333s-9.551-21.333-21.333-21.333h-170.667c-11.782 0-21.333 9.551-21.333 21.333s9.551 21.333 21.333 21.333h170.667z" />
<glyph unicode="&#xe959;" glyph-name="tray-plus" data-tags="tray-plus" d="M810.667 597.334h64c11.782 0 21.333-9.551 21.333-21.333s-9.551-21.333-21.333-21.333h-64v-64c0-11.782-9.551-21.333-21.333-21.333s-21.333 9.551-21.333 21.333v64h-64c-11.782 0-21.333 9.551-21.333 21.333s9.551 21.333 21.333 21.333h64v64c0 11.782 9.551 21.333 21.333 21.333s21.333-9.551 21.333-21.333v-64zM170.667 170.667h234.667c11.782 0 21.333-9.551 21.333-21.333 0-35.346 28.654-64 64-64h42.667c35.346 0 64 28.654 64 64 0 11.782 9.551 21.333 21.333 21.333h234.667v234.667c0 11.782 9.551 21.333 21.333 21.333s21.333-9.551 21.333-21.333v-384c0-58.91-47.756-106.667-106.667-106.667h-554.667c-58.91 0-106.667 47.756-106.667 106.667v554.667c0 58.91 47.756 106.667 106.667 106.667h384c11.782 0 21.333-9.551 21.333-21.333s-9.551-21.333-21.333-21.333h-384c-35.346 0-64-28.654-64-64v-405.333zM170.667 128v-106.667c0-35.346 28.654-64 64-64h554.667c35.346 0 64 28.654 64 64v106.667h-215.467c-9.883-48.688-52.929-85.333-104.533-85.333h-42.667c-51.604 0-94.65 36.646-104.533 85.333h-215.467z" />
<glyph unicode="&#xe95a;" glyph-name="tray-stack" data-tags="tray-stack" d="M853.333 341.334h-215.467c-9.883-48.688-52.929-85.333-104.533-85.333h-42.667c-51.604 0-94.65 36.646-104.533 85.333h-215.467v-170.667h234.667c11.782 0 21.333-9.551 21.333-21.333 0-35.346 28.654-64 64-64h42.667c35.346 0 64 28.654 64 64 0 11.782 9.551 21.333 21.333 21.333h234.667v170.667zM853.333 384v192c0 35.346-28.654 64-64 64h-554.667c-35.346 0-64-28.654-64-64v-192h234.667c11.782 0 21.333-9.551 21.333-21.333 0-35.346 28.654-64 64-64h42.667c35.346 0 64 28.654 64 64 0 11.782 9.551 21.333 21.333 21.333h234.667zM853.333 128h-215.467c-9.883-48.688-52.929-85.333-104.533-85.333h-42.667c-51.604 0-94.65 36.646-104.533 85.333h-215.467v-106.667c0-35.346 28.654-64 64-64h554.667c35.346 0 64 28.654 64 64v106.667zM234.667 682.667h554.667c58.91 0 106.667-47.756 106.667-106.667v-554.667c0-58.91-47.756-106.667-106.667-106.667h-554.667c-58.91 0-106.667 47.756-106.667 106.667v554.667c0 58.91 47.756 106.667 106.667 106.667z" />
<glyph unicode="&#xe95b;" glyph-name="tray" data-tags="tray" d="M853.333 170.667v405.333c0 35.346-28.654 64-64 64h-554.667c-35.346 0-64-28.654-64-64v-405.333h234.667c11.782 0 21.333-9.551 21.333-21.333 0-35.346 28.654-64 64-64h42.667c35.346 0 64 28.654 64 64 0 11.782 9.551 21.333 21.333 21.333h234.667zM853.333 128h-215.467c-9.883-48.688-52.929-85.333-104.533-85.333h-42.667c-51.604 0-94.65 36.646-104.533 85.333h-215.467v-106.667c0-35.346 28.654-64 64-64h554.667c35.346 0 64 28.654 64 64v106.667zM234.667 682.667h554.667c58.91 0 106.667-47.756 106.667-106.667v-554.667c0-58.91-47.756-106.667-106.667-106.667h-554.667c-58.91 0-106.667 47.756-106.667 106.667v554.667c0 58.91 47.756 106.667 106.667 106.667zM320 469.334c-11.782 0-21.333 9.551-21.333 21.333s9.551 21.333 21.333 21.333h384c11.782 0 21.333-9.551 21.333-21.333s-9.551-21.333-21.333-21.333h-384zM320 298.667c-11.782 0-21.333 9.551-21.333 21.333s9.551 21.333 21.333 21.333h384c11.782 0 21.333-9.551 21.333-21.333s-9.551-21.333-21.333-21.333h-384z" />
<glyph unicode="&#xe95c;" glyph-name="artboard" data-tags="artboard" d="M661.333 512h-298.667c-35.346 0-64-28.654-64-64v-298.667c0-35.346 28.654-64 64-64h298.667c35.346 0 64 28.654 64 64v298.667c0 35.346-28.654 64-64 64zM661.333 554.667c58.91 0 106.667-47.756 106.667-106.667v-298.667c0-58.91-47.756-106.667-106.667-106.667h-298.667c-58.91 0-106.667 47.756-106.667 106.667v298.667c0 58.91 47.756 106.667 106.667 106.667h298.667zM213.333 704c0 11.782 9.551 21.333 21.333 21.333s21.333-9.551 21.333-21.333v-128c0-11.782-9.551-21.333-21.333-21.333h-128c-11.782 0-21.333 9.551-21.333 21.333s9.551 21.333 21.333 21.333h106.667v106.667zM810.667 597.334h106.667c11.782 0 21.333-9.551 21.333-21.333s-9.551-21.333-21.333-21.333h-128c-11.782 0-21.333 9.551-21.333 21.333v128c0 11.782 9.551 21.333 21.333 21.333s21.333-9.551 21.333-21.333v-106.667zM213.333-0h-106.667c-11.782 0-21.333 9.551-21.333 21.333s9.551 21.333 21.333 21.333h128c11.782 0 21.333-9.551 21.333-21.333v-128c0-11.782-9.551-21.333-21.333-21.333s-21.333 9.551-21.333 21.333v106.667zM810.667-0v-106.667c0-11.782-9.551-21.333-21.333-21.333s-21.333 9.551-21.333 21.333v128c0 11.782 9.551 21.333 21.333 21.333h128c11.782 0 21.333-9.551 21.333-21.333s-9.551-21.333-21.333-21.333h-106.667z" />
</font>
</defs>
</svg>
